<?xml version="1.0" standalone="no"?>
<!DOCTYPE svg PUBLIC "-//W3C//DTD SVG 1.1//EN" "http://www.w3.org/Graphics/SVG/1.1/DTD/svg11.dtd" >
<svg xmlns="http://www.w3.org/2000/svg">
<metadata></metadata>
<defs>
<font id="source_sans_proitalic" horiz-adv-x="983" >
<font-face units-per-em="2048" ascent="1536" descent="-512" />
<missing-glyph horiz-adv-x="393" />
<glyph horiz-adv-x="0" />
<glyph horiz-adv-x="682" />
<glyph horiz-adv-x="0" />
<glyph horiz-adv-x="0" />
<glyph unicode="&#xd;" horiz-adv-x="393" />
<glyph unicode=" "  horiz-adv-x="393" />
<glyph unicode="&#x09;" horiz-adv-x="393" />
<glyph unicode="&#xa0;" horiz-adv-x="393" />
<glyph unicode="!" horiz-adv-x="577" d="M88 78q0 53 39 98t98 45q47 0 70.5 -29.5t23.5 -74.5q0 -53 -37 -97.5t-96 -44.5q-45 0 -71.5 29t-26.5 74zM209 401l137 785l31 188h158l-39 -188l-177 -785h-110z" />
<glyph unicode="&#x22;" horiz-adv-x="835" d="M262 872l47 314l31 188h154l-39 -188l-86 -314h-107zM602 872l47 314l31 188h154l-39 -188l-86 -314h-107z" />
<glyph unicode="#" horiz-adv-x="980" d="M49 420l27 112h168l94 308h-164l29 112h172l121 379h104l-119 -379h256l121 379h105l-119 -379h162l-29 -112h-168l-94 -308h166l-29 -112h-174l-131 -420h-107l133 420h-258l-131 -420h-106l133 420h-162zM350 532h260l95 308h-261z" />
<glyph unicode="$" d="M35 168l100 98q47 -61 119 -110.5t164 -49.5q113 0 184.5 66t71.5 172q0 74 -33 128t-81 98t-105.5 84t-105.5 86t-80.5 103.5t-32.5 135.5q0 76 26.5 139.5t74.5 110.5t113.5 75.5t145.5 32.5l41 201h115l-43 -211q72 -18 134 -63t107 -105l-102 -92q-41 59 -100.5 100 t-131.5 41q-98 0 -161.5 -58t-63.5 -151q0 -63 33 -109t81 -86t104.5 -80t104.5 -89t80.5 -113.5t32.5 -152.5q0 -80 -26.5 -149.5t-76.5 -122t-121 -84t-157 -38.5l-40 -200h-115l41 209q-92 18 -168 69t-129 115z" />
<glyph unicode="%" horiz-adv-x="1619" d="M125 840q0 94 24.5 190t72.5 174t116.5 126t158.5 48q59 0 106.5 -23.5t79.5 -65.5t49 -98t17 -124q0 -96 -24.5 -192.5t-72.5 -173t-117.5 -125t-157.5 -48.5q-59 0 -106.5 24t-79 65.5t-49 98t-17.5 124.5zM246 848q0 -94 32.5 -155.5t108.5 -61.5q57 0 102 39 t76 100.5t47.5 137t16.5 149.5q0 94 -33 156.5t-109 62.5q-57 0 -102 -39t-76 -101.5t-47 -138t-16 -149.5zM275 -25l991 1401h107l-992 -1401h-106zM916 287q0 94 24.5 190t72.5 174t116.5 126t158.5 48q59 0 106.5 -23.5t79.5 -65.5t49 -98t17 -124q0 -96 -24.5 -192.5 t-72.5 -173t-117.5 -125t-157.5 -48.5q-59 0 -106.5 24t-79 65.5t-49 98t-17.5 124.5zM1037 295q0 -94 32.5 -155.5t108.5 -61.5q57 0 102 39t76 100.5t47.5 137t16.5 149.5q0 94 -33 156.5t-109 62.5q-57 0 -102 -39t-76 -101.5t-47 -138t-16 -149.5z" />
<glyph unicode="&#x26;" horiz-adv-x="1191" d="M31 289q0 82 28.5 148.5t75.5 121.5t108.5 99t127.5 85q-37 119 -37 232q0 86 28.5 157.5t76.5 124t111.5 82t135.5 29.5q111 0 166 -62.5t55 -156.5q0 -78 -32.5 -141.5t-86 -117.5t-121 -100.5t-137.5 -89.5q43 -109 109 -209t143 -182q84 88 146.5 190.5t115.5 221.5 h144q-63 -135 -141 -261t-177 -233q113 -90 209 -125l-65 -127q-125 41 -252 150q-86 -70 -184.5 -110t-208.5 -40q-154 0 -246 85t-92 229zM186 309q0 -94 58.5 -151.5t152.5 -57.5q72 0 142.5 29t136.5 80q-80 88 -147.5 193.5t-114.5 220.5q-96 -66 -162 -140t-66 -174z M469 983q0 -78 23 -168q57 35 109 70t91 73.5t62.5 83.5t23.5 101q0 47 -24.5 80.5t-77.5 33.5q-43 0 -81 -20t-65.5 -57t-44 -87.5t-16.5 -109.5z" />
<glyph unicode="'" horiz-adv-x="495" d="M262 872l47 314l31 188h154l-39 -188l-86 -314h-107z" />
<glyph unicode="(" horiz-adv-x="595" d="M133 272q0 178 32 338t93 309.5t149.5 292t202.5 285.5l92 -51q-217 -276 -327.5 -571t-110.5 -619q0 -72 5 -148.5t16.5 -152.5t28 -147.5t38.5 -129.5l-102 -38q-49 131 -83 296.5t-34 335.5z" />
<glyph unicode=")" horiz-adv-x="600" d="M-90 -307q436 551 436 1188q0 72 -5 149.5t-15.5 153.5t-26.5 145.5t-39 128.5l102 39q49 -131 83 -297t34 -334q0 -180 -31.5 -339.5t-93 -309t-150.5 -292t-202 -285.5z" />
<glyph unicode="*" horiz-adv-x="825" d="M256 1229l37 82l203 -68l51 217l90 -8l-16 -219l210 29l15 -88l-211 -64l78 -199l-82 -47l-107 180l-164 -155l-65 59l141 180z" />
<glyph unicode="+" d="M98 618v117h359v400h123v-400h358v-117h-360v-407h-123v407h-357z" />
<glyph unicode="," horiz-adv-x="495" d="M-63 -242q96 37 153 97.5t74 136.5h-4q-47 0 -77 25.5t-30 72.5q0 51 36 91t95 40q53 0 82 -37t29 -98q0 -152 -92 -265.5t-244 -156.5z" />
<glyph unicode="-" horiz-adv-x="612" d="M72 455l24 120h449l-27 -120h-446z" />
<glyph unicode="." horiz-adv-x="495" d="M47 78q0 53 39 98t98 45q45 0 70 -29.5t25 -74.5q0 -53 -38.5 -97.5t-97.5 -44.5q-45 0 -70.5 29t-25.5 74z" />
<glyph unicode="/" horiz-adv-x="696" d="M-147 -328l888 1782h115l-891 -1782h-112z" />
<glyph unicode="0" d="M86 420q0 182 44 348t118 291t172 198.5t207 73.5q76 0 136 -34.5t100 -94t61.5 -142.5t21.5 -177q0 -184 -43 -348t-116.5 -289t-170.5 -198t-206 -73q-78 0 -138.5 34t-101.5 93.5t-62.5 140.5t-21.5 177zM233 414q0 -68 11.5 -125.5t34 -99.5t57.5 -65.5t82 -23.5 q80 0 149.5 71t121.5 184.5t82 254t30 279.5q0 137 -45.5 226t-139.5 89q-80 0 -149.5 -71.5t-121.5 -185t-82 -255t-30 -278.5z" />
<glyph unicode="1" d="M53 0l27 131h285l196 979h-231l20 102q174 25 287 95h121l-238 -1176h266l-24 -131h-709z" />
<glyph unicode="2" d="M-20 0l16 94q197 166 342 291t241.5 227.5t144.5 191.5t48 185q0 90 -52 151.5t-161 61.5q-66 0 -132.5 -33.5t-135.5 -97.5l-80 98q90 78 179 120t188 42q84 0 148.5 -23.5t109.5 -66.5t67.5 -102.5t22.5 -128.5q0 -109 -43 -204t-127 -195.5t-212 -214t-296 -261.5h565 l-25 -135h-808z" />
<glyph unicode="3" d="M-18 201l104 82q47 -70 122 -123.5t177 -53.5q70 0 128 20.5t100 56.5t65.5 85t23.5 109q0 51 -20 95t-65.5 77t-117 50t-175.5 17l24 119q121 0 203 24.5t132 63.5t71.5 87t21.5 96q0 86 -51 141t-156 55q-59 0 -127.5 -28.5t-128.5 -75.5l-80 104q170 129 361 129 q166 0 254 -82t88 -217q0 -125 -76 -219t-229 -137v-8q109 -35 169 -109t60 -176q0 -94 -36 -169t-99 -128t-151.5 -82t-190.5 -29q-135 0 -237.5 67t-163.5 159z" />
<glyph unicode="4" d="M16 360l19 107l700 840h172l-164 -820h172l-26 -127h-170l-72 -360h-147l73 360h-557zM209 487h389l76 387q12 59 29.5 126t33.5 135h-8q-41 -57 -81 -111.5t-77 -101.5z" />
<glyph unicode="5" d="M-8 197l102 84q23 -35 49.5 -66t61.5 -55.5t80 -39t102 -14.5q63 0 121.5 25t103.5 71t72 109.5t27 143.5q0 127 -64.5 188.5t-171.5 61.5q-63 0 -108 -16.5t-111 -51.5l-68 53l164 617h613l-27 -136h-477l-107 -385q35 16 78 28.5t94 12.5q74 0 136.5 -21.5t108.5 -64.5 t71.5 -107.5t25.5 -150.5q0 -117 -41 -211t-108.5 -159.5t-156.5 -101.5t-185 -36q-135 0 -230.5 64.5t-154.5 157.5z" />
<glyph unicode="6" d="M104 418q0 199 46.5 366.5t128 289.5t193.5 189.5t243 67.5q106 0 174.5 -50t109.5 -116l-106 -84q-35 57 -79 88t-107 31q-78 0 -148 -40t-128 -112.5t-100 -176t-63 -232.5q68 78 152 115t151 37q145 0 231.5 -90.5t86.5 -249.5q0 -96 -32 -182.5t-89 -152t-134 -103.5 t-167 -38q-84 0 -150.5 33t-113.5 91.5t-73 140.5t-26 178zM252 414q0 -141 59.5 -228.5t163.5 -87.5q55 0 104.5 29t86 75t57 105.5t20.5 120.5q0 113 -52 179.5t-156 66.5q-25 0 -57 -8.5t-68.5 -26.5t-76.5 -50t-79 -81q-2 -23 -2 -46.5v-47.5z" />
<glyph unicode="7" d="M219 1171l29 136h807l-21 -103q-152 -143 -255 -286.5t-173.5 -291t-116 -303t-79.5 -323.5h-164q43 184 96 343t124 302t163 273.5t217 252.5h-627z" />
<glyph unicode="8" d="M72 315q0 74 25.5 135.5t67.5 109.5t97 85t115 64v8q-57 57 -87 117.5t-30 140.5q0 84 31 149.5t84 111.5t121.5 70.5t146.5 24.5q61 0 119.5 -18.5t103.5 -56t72 -95t27 -133.5q0 -131 -70 -219t-180 -150v-8q29 -20 60.5 -49t57 -65.5t42 -82.5t16.5 -98 q0 -88 -36 -158.5t-95.5 -119.5t-138 -76t-166.5 -27q-72 0 -140.5 20.5t-122 62.5t-87 106.5t-33.5 150.5zM215 332q0 -57 19.5 -101.5t53.5 -75t79 -47t96 -16.5q53 0 103 17.5t90 49t63.5 80t23.5 109.5q0 57 -23.5 100.5t-64.5 79t-94 66t-110 61.5q-104 -57 -170 -133 t-66 -190zM403 983q0 -102 59.5 -163.5t168.5 -112.5q37 25 72.5 55.5t63.5 68t44 81.5t16 96q0 98 -56 151t-140 53q-45 0 -86 -15t-73 -45t-50.5 -73t-18.5 -96z" />
<glyph unicode="9" d="M37 141l106 84q35 -57 79 -88t110 -31q76 0 145.5 40t127 113t99 175.5t62.5 229.5q-68 -76 -151 -112t-148 -36q-147 0 -233.5 90t-86.5 250q0 96 32 182t89.5 151.5t134 103.5t166.5 38q84 0 151.5 -32.5t115 -91t72 -140.5t24.5 -178q0 -201 -46 -368t-128 -288.5 t-193.5 -189.5t-242.5 -68q-106 0 -175 50.5t-110 115.5zM295 879q0 -115 52.5 -180.5t154.5 -65.5q25 0 56.5 8t68.5 26.5t76.5 50.5t78.5 81q2 23 2 46v48q0 141 -59 228t-164 87q-55 0 -104 -28.5t-85 -74.5t-56.5 -105.5t-20.5 -120.5z" />
<glyph unicode=":" horiz-adv-x="495" d="M47 78q0 53 39 98t98 45q45 0 70 -29.5t25 -74.5q0 -53 -38.5 -97.5t-97.5 -44.5q-45 0 -70.5 29t-25.5 74zM178 834q0 53 39 98t98 45q45 0 70 -29.5t25 -74.5q0 -53 -38.5 -97.5t-97.5 -44.5q-45 0 -70.5 29t-25.5 74z" />
<glyph unicode=";" horiz-adv-x="495" d="M-63 -242q96 37 153 97.5t74 136.5h-4q-47 0 -77 25.5t-30 72.5q0 51 36 91t95 40q53 0 82 -37t29 -98q0 -152 -92 -265.5t-244 -156.5zM178 834q0 53 39 98t98 45q45 0 70 -29.5t25 -74.5q0 -53 -38.5 -97.5t-97.5 -44.5q-45 0 -70.5 29t-25.5 74z" />
<glyph unicode="&#x3c;" d="M94 616v119l844 342v-133l-416 -164l-256 -98v-8l256 -101l416 -161v-136z" />
<glyph unicode="=" d="M98 401v117h840v-117h-840zM98 835v117h840v-117h-840z" />
<glyph unicode="&#x3e;" d="M98 276v136l418 161l254 101v8l-254 98l-418 164v133l844 -342v-119z" />
<glyph unicode="?" horiz-adv-x="837" d="M193 78q0 53 38.5 98t98.5 45q45 0 69.5 -29.5t24.5 -74.5q0 -53 -38 -97.5t-97 -44.5q-45 0 -70.5 29t-25.5 74zM227 1255q59 61 142.5 101.5t175.5 40.5q143 0 227 -75t84 -208q0 -84 -29.5 -147.5t-74.5 -116.5t-98.5 -101.5t-100.5 -99.5t-81 -111.5t-40 -138.5 l-135 13q4 86 37 152.5t78 120.5t96 100t94 92.5t71.5 96.5t28.5 113q0 86 -47 132.5t-129 46.5q-59 0 -114.5 -29t-100.5 -76z" />
<glyph unicode="@" horiz-adv-x="1667" d="M92 334q0 211 75 391t198.5 312t284.5 207t333 75q145 0 258 -45t190.5 -126t118.5 -192.5t41 -242.5q0 -150 -35.5 -264.5t-96 -193.5t-138.5 -119t-160 -40q-72 0 -121 42t-63 114h-6q-47 -59 -107.5 -98t-128.5 -39q-47 0 -90 18.5t-74.5 53t-51 87t-19.5 117.5 q0 90 31.5 178t86 157t127 111t156.5 42q96 0 150 -105h4l26 88h105l-103 -444q-23 -96 1 -154.5t106 -58.5q49 0 101 31.5t93 94t68 153.5t27 208q0 111 -30 207t-93.5 166t-159.5 109.5t-227 39.5q-139 0 -275.5 -65.5t-244 -181t-174 -272t-66.5 -339.5q0 -137 42 -242.5 t112.5 -178t166 -109.5t203.5 -37q154 0 277 76l47 -94q-164 -88 -336 -88q-133 0 -248 44t-199 127t-133 203.5t-49 276.5zM625 406q0 -92 40 -137.5t99 -45.5q92 0 184 125l74 330q-29 53 -57.5 72.5t-63.5 19.5q-61 0 -111.5 -35t-87 -88t-57 -117.5t-20.5 -123.5z" />
<glyph unicode="A" horiz-adv-x="1044" d="M-109 0l730 1343h184l156 -1343h-166l-37 420h-475l-215 -420h-177zM346 543h399l-20 229q-10 106 -19.5 214t-17.5 224h-8q-53 -117 -105.5 -222t-109.5 -216z" />
<glyph unicode="B" horiz-adv-x="1193" d="M72 0l268 1343h358q195 0 305.5 -74.5t110.5 -221.5q0 -68 -25.5 -124.5t-68.5 -99.5t-96.5 -71.5t-108.5 -40.5l-2 -9q104 -25 176 -91t72 -181q0 -113 -42 -193.5t-118 -133t-178 -78t-221 -25.5h-430zM254 125h233q193 0 305.5 69.5t112.5 227.5q0 102 -78.5 164.5 t-228.5 62.5h-238zM383 766h192q193 0 285 71.5t92 186.5q0 92 -69.5 143.5t-223.5 51.5h-186z" />
<glyph unicode="C" horiz-adv-x="1126" d="M117 518q0 158 50 310.5t141 272.5t219 193.5t284 73.5q117 0 199 -56.5t131 -142.5l-111 -84q-41 66 -95 106t-132 40q-121 0 -217.5 -63.5t-164 -164t-104 -224.5t-36.5 -247q0 -92 19 -168.5t60 -132t106.5 -87t156.5 -31.5q82 0 150.5 32.5t133.5 87.5l72 -102 q-74 -66 -168 -111t-217 -45q-115 0 -204 40t-149.5 112t-92 171t-31.5 220z" />
<glyph unicode="D" horiz-adv-x="1212" d="M72 0l268 1343h250q281 0 425 -138t144 -386q0 -182 -50 -333.5t-143.5 -259t-228.5 -167t-305 -59.5h-360zM256 131h176q131 0 235.5 50t178.5 139.5t112.5 214t38.5 274.5q0 193 -104.5 299t-308.5 106h-111z" />
<glyph unicode="E" horiz-adv-x="1030" d="M72 0l268 1343h741l-26 -133h-584l-86 -436h494l-29 -135h-490l-104 -504h602l-29 -135h-757z" />
<glyph unicode="F" horiz-adv-x="968" d="M72 0l268 1343h741l-26 -133h-584l-92 -467h493l-26 -135h-492l-123 -608h-159z" />
<glyph unicode="G" horiz-adv-x="1204" d="M117 518q0 160 50 312.5t142 272.5t224.5 192.5t297.5 72.5q121 0 204 -56.5t134 -142.5l-112 -84q-39 66 -95.5 106t-138.5 40q-127 0 -227 -63.5t-171 -164t-107.5 -224.5t-36.5 -247q0 -90 19 -166.5t62.5 -134t111 -89t163.5 -31.5q74 0 131 23.5t98 58.5l76 370 h-278l26 131h422l-117 -581q-74 -61 -169 -99.5t-212 -38.5q-121 0 -214 39t-156.5 110t-95 171t-31.5 223z" />
<glyph unicode="H" horiz-adv-x="1273" d="M72 0l268 1343h160l-115 -567h606l115 567h158l-269 -1343h-159l129 639h-607l-127 -639h-159z" />
<glyph unicode="I" horiz-adv-x="516" d="M72 0l268 1343h160l-269 -1343h-159z" />
<glyph unicode="J" horiz-adv-x="933" d="M-4 182l104 88q29 -74 86.5 -115.5t143.5 -41.5q102 0 165.5 75.5t90.5 210.5l188 944h160l-193 -966q-16 -86 -51 -160t-86 -128t-120.5 -84t-157.5 -30q-121 0 -204 56.5t-126 150.5z" />
<glyph unicode="K" horiz-adv-x="1144" d="M72 0l268 1343h160l-133 -663h6l674 663h180l-504 -516l305 -827h-166l-258 725l-280 -274l-93 -451h-159z" />
<glyph unicode="L" horiz-adv-x="946" d="M72 0l268 1343h160l-242 -1208h565l-26 -135h-725z" />
<glyph unicode="M" horiz-adv-x="1443" d="M72 0l268 1343h190l117 -725l45 -278h8l144 278l399 725h191l-269 -1343h-153l155 758q18 92 45 199.5t52 195.5h-9l-161 -299l-396 -713h-90l-125 713l-45 299h-8q-12 -92 -26.5 -197.5t-30.5 -197.5l-152 -758h-149z" />
<glyph unicode="N" horiz-adv-x="1267" d="M72 0l268 1343h160l307 -860l86 -280h8q12 100 25.5 211.5t36.5 216.5l141 712h153l-268 -1343h-158l-303 858l-88 289h-8q-12 -104 -27.5 -213t-35.5 -211l-144 -723h-153z" />
<glyph unicode="O" horiz-adv-x="1296" d="M123 539q0 154 48 302t134 266t206 189.5t265 71.5q113 0 200 -40t145.5 -113.5t89 -177t30.5 -230.5q0 -154 -48 -303.5t-134 -267t-207 -189.5t-264 -72q-113 0 -200 40t-145.5 114t-89 178.5t-30.5 231.5zM285 551q0 -98 18.5 -179t56 -138.5t97 -89t139.5 -31.5 q109 0 198 62.5t152.5 160.5t98 219t34.5 238q0 199 -75.5 318.5t-235.5 119.5q-109 0 -198 -61.5t-152.5 -160t-98 -219t-34.5 -239.5z" />
<glyph unicode="P" horiz-adv-x="1126" d="M72 0l268 1343h379q94 0 172 -18t133 -58t86 -101.5t31 -149.5q0 -123 -44 -213t-122 -148.5t-185.5 -86t-236.5 -27.5h-215l-107 -541h-159zM365 670h194q209 0 316.5 82t107.5 243q0 117 -78 169.5t-225 52.5h-207z" />
<glyph unicode="Q" horiz-adv-x="1296" d="M123 539q0 154 48 302t134 266t206 189.5t265 71.5q113 0 200 -40t145.5 -113.5t89 -177t30.5 -230.5q0 -147 -44 -291.5t-124 -259.5t-191.5 -190.5t-246.5 -88.5q35 -90 121 -133t194 -43q31 0 57.5 4.5t55.5 10.5l10 -125q-68 -23 -133 -23q-172 0 -295 77t-174 243 q-172 39 -260 184t-88 367zM285 551q0 -98 18.5 -179t56 -138.5t97 -89t139.5 -31.5q109 0 198 62.5t152.5 160.5t98 219t34.5 238q0 199 -75.5 318.5t-235.5 119.5q-109 0 -198 -61.5t-152.5 -160t-98 -219t-34.5 -239.5z" />
<glyph unicode="R" horiz-adv-x="1136" d="M72 0l268 1343h369q94 0 170.5 -17t132 -55t86 -97.5t30.5 -143.5q0 -92 -29.5 -168t-82.5 -132t-125 -93t-158 -53l236 -584h-170l-221 569h-234l-113 -569h-159zM371 698h202q193 0 295.5 84t102.5 228q0 111 -77 159t-224 48h-197z" />
<glyph unicode="S" horiz-adv-x="1036" d="M25 213l116 88q59 -90 146.5 -140t199.5 -50q61 0 114.5 18t91.5 51t60.5 80t22.5 105q0 74 -46 124t-122 97l-155 94q-86 53 -146.5 127t-60.5 188q0 76 31.5 143.5t87 119t132 81t167.5 29.5q121 0 219 -53t161 -135l-104 -95q-53 61 -124 103.5t-165 42.5 q-57 0 -102 -18.5t-77 -49t-48 -69.5t-16 -80q0 -78 50 -126t124 -93l155 -93q98 -57 150.5 -129.5t52.5 -185.5q0 -90 -35 -166t-96 -130t-147.5 -85t-188.5 -31q-139 0 -253 58.5t-195 179.5z" />
<glyph unicode="T" horiz-adv-x="1044" d="M190 1206l27 137h940l-27 -137h-391l-239 -1206h-160l240 1206h-390z" />
<glyph unicode="U" horiz-adv-x="1261" d="M162 399q0 43 5 91.5t15 99.5l152 753h160l-154 -768q-18 -92 -18 -161q0 -145 65.5 -223t206.5 -78q57 0 109.5 22.5t97.5 71.5t78.5 126t56.5 187l166 823h155l-167 -829q-29 -145 -77 -247.5t-113.5 -167t-144.5 -94.5t-169 -30q-205 0 -314.5 106.5t-109.5 317.5z " />
<glyph unicode="V" horiz-adv-x="1015" d="M168 1343h162l55 -745q10 -111 18.5 -221.5t14.5 -220.5h8q51 109 105.5 221t107.5 221l371 745h172l-703 -1343h-190z" />
<glyph unicode="W" horiz-adv-x="1548" d="M195 0l18 1343h164l-21 -739q-6 -109 -9 -217t-11 -219h8q47 111 96 219.5t95 216.5l335 739h146l18 -739q2 -106 2 -215.5v-220.5h8q41 111 85.5 219.5t84.5 216.5l291 739h158l-553 -1343h-203l-14 821q0 74 1 155t5 161h-8q-29 -80 -62.5 -158t-68.5 -158l-367 -821 h-198z" />
<glyph unicode="X" horiz-adv-x="1011" d="M-74 0l516 696l-221 647h172l115 -356q14 -47 26.5 -91t28.5 -97h6l70 98t66 96l245 350h168l-485 -659l239 -684h-172l-122 377q-16 51 -32 103t-32 106h-6q-41 -53 -78 -109.5t-72 -107.5l-262 -369h-170z" />
<glyph unicode="Y" horiz-adv-x="944" d="M170 1343h164l92 -387q18 -74 33.5 -143.5t34.5 -146.5h8q47 76 91 147.5t93 144.5l254 385h170l-561 -819l-107 -524h-157l104 524z" />
<glyph unicode="Z" horiz-adv-x="1048" d="M-2 0l20 96l871 1114h-615l29 133h805l-21 -94l-864 -1114h678l-31 -135h-872z" />
<glyph unicode="[" horiz-adv-x="598" d="M16 -311l353 1761h346l-15 -92h-231l-313 -1577h229l-23 -92h-346z" />
<glyph unicode="\" horiz-adv-x="696" d="M180 1454h107l239 -1782h-110z" />
<glyph unicode="]" horiz-adv-x="600" d="M-100 -311l20 92h227l318 1577h-229l16 92h350l-352 -1761h-350z" />
<glyph unicode="^" horiz-adv-x="980" d="M170 580l299 792h127l299 -792h-131l-133 364l-92 273h-7l-96 -273l-131 -364h-135z" />
<glyph unicode="_" horiz-adv-x="989" d="M-74 -254l23 102h936l-21 -102h-938z" />
<glyph unicode="`" horiz-adv-x="1058" d="M520 1458h153l121 -289h-114z" />
<glyph unicode="a" horiz-adv-x="1099" d="M80 336q0 143 45 268t121 217t172 145.5t200 53.5q80 0 142.5 -41t97.5 -109h8l39 125h127l-198 -995h-129l16 147h-8q-72 -78 -162 -125t-184 -47q-131 0 -209 92.5t-78 268.5zM242 360q0 -129 49 -191.5t133 -62.5q78 0 159 46.5t154 144.5l90 444q-43 78 -94 113 t-108 35q-74 0 -143.5 -44t-123 -118t-85 -169t-31.5 -198z" />
<glyph unicode="b" horiz-adv-x="1097" d="M63 0l291 1458h158l-80 -389l-45 -197h4q74 59 160 103.5t178 44.5q131 0 209 -92t78 -269q0 -143 -45 -268t-120 -217t-172 -145.5t-200 -53.5q-80 0 -142.5 41t-96.5 109h-7l-40 -125h-130zM270 254q41 -78 92.5 -113t110.5 -35q74 0 143.5 44.5t122 118t84 168.5 t31.5 200q0 127 -48 189.5t-134 62.5q-70 0 -153 -43t-154 -119z" />
<glyph unicode="c" horiz-adv-x="890" d="M76 375q0 139 46 257t123 204t177 135t209 49q90 0 151.5 -35t106.5 -86l-92 -98q-39 47 -78 68.5t-98 21.5q-74 0 -143.5 -41t-124 -109.5t-86 -161t-31.5 -194.5q0 -135 58 -207t177 -72q66 0 120 27t101 62l70 -103q-53 -41 -131 -79t-189 -38q-164 0 -265 103.5 t-101 296.5z" />
<glyph unicode="d" horiz-adv-x="1095" d="M80 336q0 143 45 268t121 217t172 145.5t200 53.5q80 0 139.5 -40t96.5 -106h6l33 195l78 389h157l-294 -1458h-129l16 147h-8q-72 -78 -162 -125t-184 -47q-131 0 -209 92.5t-78 268.5zM242 360q0 -129 49 -191.5t133 -62.5q78 0 158 46.5t155 144.5l90 444 q-43 78 -94 113t-108 35q-74 0 -143.5 -44t-123 -118t-85 -169t-31.5 -198z" />
<glyph unicode="e" horiz-adv-x="985" d="M76 391q0 141 47 257t121.5 199t170 128t193.5 45q84 0 142.5 -27.5t95.5 -76t53 -115t16 -142.5q0 -59 -12 -112t-22 -82h-648q-6 -44 -6 -82q1 -45 9 -83q16 -69 54 -114t93 -65.5t121 -20.5q59 0 117.5 26t105.5 60l61 -104q-59 -43 -141 -75t-180 -32 q-178 0 -284.5 107.5t-106.5 308.5zM250 571h522q4 25 7 49.5t3 53.5q0 43 -10 83t-32.5 70.5t-59.5 49t-90 18.5q-55 0 -107.5 -22.5t-97.5 -65.5t-81 -102.5t-54 -133.5z" />
<glyph unicode="f" horiz-adv-x="577" d="M88 0l174 868h-129l23 117l133 10l33 166q31 152 109.5 237t205.5 85q53 0 96 -13.5t80 -35.5l-55 -113q-23 14 -49.5 24.5t-61.5 10.5q-68 0 -109.5 -51.5t-58.5 -139.5l-35 -170h201l-24 -127h-203l-174 -868h-156z" />
<glyph unicode="g" horiz-adv-x="1087" d="M-4 -322l74 109q57 -49 126.5 -84t153.5 -35q129 0 205 81t109 216l49 205h-6q-74 -72 -158 -116t-180 -44q-127 0 -208 88t-81 262q0 137 44 257t117.5 209t169 141.5t195.5 52.5q78 0 141.5 -41t98.5 -109h6l39 125h129l-209 -1042q-41 -199 -160 -305.5t-307 -106.5 q-100 0 -188 39t-160 98zM242 383q0 -123 47 -182.5t131 -59.5q72 0 153.5 44t153.5 130l88 426q-47 78 -96 113t-107 35q-72 0 -139 -42t-118.5 -112.5t-82 -162t-30.5 -189.5z" />
<glyph unicode="h" horiz-adv-x="1062" d="M63 0l291 1458h158l-98 -481l-33 -125h8q86 72 168 120t174 48q127 0 181.5 -65.5t54.5 -182.5q0 -35 -3 -65.5t-14 -71.5l-127 -635h-155l123 614q8 41 12 66t4 51q0 76 -35 115t-113 39q-59 0 -131.5 -43t-167.5 -137l-141 -705h-156z" />
<glyph unicode="i" horiz-adv-x="485" d="M63 0l199 995h158l-201 -995h-156zM295 1294q0 51 36 85t83 34q41 0 70.5 -24.5t29.5 -69.5q0 -51 -36 -84t-83 -33q-41 0 -70.5 23.5t-29.5 68.5z" />
<glyph unicode="j" horiz-adv-x="487" d="M-254 -406l51 117q20 -12 41 -19t53 -7q57 0 91 49t55 139l227 1122h158l-227 -1120q-29 -143 -97.5 -231t-197.5 -88q-47 0 -83 10t-71 28zM297 1294q0 51 35 85t84 34q39 0 68.5 -24.5t29.5 -69.5q0 -51 -36 -84t-83 -33q-39 0 -68.5 23.5t-29.5 68.5z" />
<glyph unicode="k" horiz-adv-x="974" d="M63 0l291 1458h158l-197 -989h4l510 526h181l-398 -415l240 -580h-160l-190 485l-230 -233l-53 -252h-156z" />
<glyph unicode="l" horiz-adv-x="507" d="M90 104q0 33 12 86l252 1268h158l-256 -1276q-4 -16 -4 -24v-15q0 -37 35 -37q6 0 12 1.5t20 5.5l3 -121q-20 -8 -43 -12.5t-56 -4.5q-66 0 -99.5 34t-33.5 95z" />
<glyph unicode="m" horiz-adv-x="1636" d="M63 0l197 995h129l-14 -149h8q78 74 164 124t164 50q59 0 100 -15.5t67.5 -41t41 -61.5t20.5 -77q96 92 185 143.5t167 51.5q125 0 180.5 -65.5t55.5 -182.5q0 -35 -4 -65.5t-13 -71.5l-127 -635h-157l125 614q8 41 12 66t4 51q0 154 -145 154q-43 0 -117 -43t-164 -137 l-141 -705h-156l123 614q8 41 12 66t4 51q0 154 -143 154q-45 0 -118.5 -43t-162.5 -137l-141 -705h-156z" />
<glyph unicode="n" horiz-adv-x="1075" d="M63 0l197 995h129l-14 -149h8q86 74 170 124t178 50q127 0 181.5 -65.5t54.5 -182.5q0 -35 -3 -65.5t-14 -71.5l-127 -635h-155l123 614q8 41 12 66t4 51q0 76 -35 115t-113 39q-59 0 -131.5 -43t-167.5 -137l-141 -705h-156z" />
<glyph unicode="o" horiz-adv-x="1054" d="M80 375q0 141 45 260t121 204t172 133t198 48q162 0 259.5 -106.5t97.5 -292.5q0 -141 -46 -260t-121 -204t-172.5 -133.5t-199.5 -48.5q-162 0 -258 106.5t-96 293.5zM238 385q0 -135 54 -207t159 -72q70 0 134 40t115.5 108t82 160t30.5 196q0 135 -54.5 208t-158.5 73 q-68 0 -133.5 -40t-116.5 -108.5t-81.5 -161t-30.5 -196.5z" />
<glyph unicode="p" horiz-adv-x="1095" d="M-20 -420l282 1415h129l-12 -131h6q76 63 163 109.5t181 46.5q131 0 209 -93t78 -268q0 -143 -45 -268t-120 -217t-172 -145.5t-200 -53.5q-78 0 -139 40t-100 104h-4l-37 -213l-64 -326h-155zM270 250q41 -78 92.5 -111t110.5 -33q74 0 143.5 44.5t122 118t84 168.5 t31.5 200q0 127 -48 189.5t-134 62.5q-70 0 -153 -43t-154 -121z" />
<glyph unicode="q" horiz-adv-x="1099" d="M80 336q0 143 45 268t121 217t172 145.5t200 53.5q80 0 142.5 -41t97.5 -109h8l39 125h127l-282 -1415h-158l67 326l62 244h-4q-74 -76 -165 -125.5t-185 -49.5q-131 0 -209 92.5t-78 268.5zM242 360q0 -129 49 -191.5t133 -62.5q70 0 154 46.5t159 144.5l90 444 q-43 78 -94 113t-108 35q-74 0 -143.5 -44t-123 -118t-85 -169t-31.5 -198z" />
<glyph unicode="r" horiz-adv-x="700" d="M63 0l197 995h129l-22 -190h8q59 92 138 153.5t171 61.5q51 0 94 -19l-55 -139q-33 16 -86 17q-74 0 -151.5 -63.5t-141.5 -186.5l-125 -629h-156z" />
<glyph unicode="s" horiz-adv-x="823" d="M-8 164l98 78q47 -66 112.5 -106t143.5 -40q43 0 81 13.5t67.5 36t46 52t16.5 64.5q0 27 -9 49.5t-29.5 44t-56.5 44t-87 51.5q-117 63 -172.5 124.5t-55.5 147.5q0 66 28 121t74 94t108.5 60.5t131.5 21.5q92 0 165 -37t128 -96l-90 -88q-41 41 -90 69.5t-117 28.5 q-80 0 -134 -46t-54 -110q0 -31 14.5 -55t39 -44.5t56 -39t66.5 -37.5q68 -37 112 -70.5t71.5 -67.5t39 -68.5t11.5 -75.5q0 -70 -28 -127.5t-78 -97.5t-118.5 -61.5t-148.5 -21.5q-49 0 -99.5 14.5t-96.5 40t-84 60.5t-62 74z" />
<glyph unicode="t" horiz-adv-x="665" d="M123 868l22 117l156 10l74 275h133l-55 -275h252l-25 -127h-256l-117 -569q-6 -37 -6 -74q0 -61 27.5 -92t99.5 -31q29 0 55.5 10.5t48.5 20.5l35 -113q-35 -16 -82 -30.5t-106 -14.5q-66 0 -111 17.5t-73.5 47.5t-41 70t-12.5 87q0 31 3 56.5t8 53.5l116 561h-145z" />
<glyph unicode="u" horiz-adv-x="1081" d="M115 223q0 35 3 65.5t13 71.5l127 635h158l-125 -614q-8 -41 -12.5 -65.5t-4.5 -51.5q0 -76 35 -114.5t113 -38.5q59 0 131 43t164 137l141 704h156l-199 -995h-129l16 152h-8q-82 -72 -167 -124.5t-177 -52.5q-127 0 -181 67t-54 181z" />
<glyph unicode="v" horiz-adv-x="917" d="M121 995h155l74 -575q8 -72 14.5 -148.5t14.5 -148.5h8q35 74 72 148.5t76 148.5l292 575h158l-530 -995h-189z" />
<glyph unicode="w" horiz-adv-x="1447" d="M143 995h156l33 -585q2 -72 3 -140.5t3 -138.5h8q31 70 58.5 138.5t60.5 140.5l262 585h154l34 -585q4 -72 5.5 -140.5t5.5 -138.5h8q29 70 55.5 138.5t59.5 140.5l260 585h147l-452 -995h-195l-29 545q-2 72 -3 145.5t-3 147.5h-8q-31 -74 -60.5 -148t-60.5 -145 l-242 -545h-188z" />
<glyph unicode="x" horiz-adv-x="878" d="M-90 0l446 528l-186 467h160l86 -221q16 -45 29.5 -85t29.5 -83h8q31 41 64 83t63 85l174 221h170l-409 -501l203 -494h-162l-90 233q-16 45 -34 91.5t-38 93.5h-8q-33 -47 -68 -91t-74 -91l-192 -236h-172z" />
<glyph unicode="y" horiz-adv-x="917" d="M-127 -399l51 116q37 -18 74 -18q76 0 142.5 61.5t117.5 165.5l37 72l-170 997h156l77 -559q10 -68 18.5 -146.5t14.5 -150.5h8q35 72 73 149t75 148l287 559h155l-586 -1079q-39 -74 -81.5 -136.5t-93 -108.5t-110 -72.5t-130.5 -26.5q-23 0 -54.5 6t-60.5 23z" />
<glyph unicode="z" horiz-adv-x="839" d="M-20 0l16 90l661 778h-452l26 127h650l-17 -92l-661 -776h520l-25 -127h-718z" />
<glyph unicode="{" horiz-adv-x="593" d="M66 518l22 103q51 0 87 14t59.5 37.5t36 52.5t18.5 57q18 98 29.5 192.5t33.5 199.5q14 80 37 133t54.5 84.5t76.5 45t107 13.5h94l-21 -92h-53q-82 0 -116.5 -47t-55.5 -146q-16 -88 -29.5 -181t-31.5 -187q-20 -100 -60.5 -155.5t-111.5 -74.5v-8q49 -16 69.5 -48 t20.5 -77q0 -53 -16.5 -128t-37 -153.5t-37 -150.5t-16.5 -121q0 -51 23.5 -75.5t89.5 -24.5h49l-20 -92h-91q-96 0 -138 39t-42 125q0 57 17.5 132.5t39 154.5t39 148.5t17.5 114.5q0 20 -6 42t-21.5 37.5t-44 25.5t-71.5 10z" />
<glyph unicode="|" horiz-adv-x="473" d="M195 -512v2048h106v-2048h-106z" />
<glyph unicode="}" horiz-adv-x="600" d="M-106 -311l18 92h53q82 0 118 45t54 145q16 88 30.5 180.5t31.5 188.5q23 102 61.5 157.5t110.5 73.5v9q-51 16 -70.5 47.5t-19.5 77.5q0 53 16 127.5t36.5 152.5t37 149.5t16.5 120.5q0 53 -22.5 78t-88.5 25h-51l21 92h90q98 0 140 -40t42 -124q0 -57 -17.5 -134 t-39 -154.5t-38.5 -149.5t-17 -117q0 -20 6 -39.5t21.5 -35t43 -25.5t72.5 -10l-23 -103q-53 0 -89 -14.5t-59.5 -38t-34.5 -52t-17 -57.5q-18 -98 -29.5 -193t-34.5 -202q-16 -80 -38.5 -132t-54.5 -83t-77 -44t-104 -13h-94z" />
<glyph unicode="~" d="M92 641q51 96 115.5 139t128.5 43q55 0 101 -27.5t88 -60.5t80 -60.5t79 -27.5q45 0 81 30t71 95l88 -57q-51 -96 -116 -139.5t-128 -43.5q-55 0 -101.5 28t-88 60.5t-79.5 60.5t-79 28q-45 0 -81 -30t-71 -95z" />
<glyph unicode="&#xa1;" horiz-adv-x="577" d="M43 -379l39 189l176 784h111l-138 -784l-30 -189h-158zM258 879q0 53 37 97t96 44q45 0 70.5 -28.5t25.5 -73.5q0 -27 -10 -52.5t-28.5 -46t-43 -33t-55.5 -12.5q-45 0 -68.5 30t-23.5 75z" />
<glyph unicode="&#xa2;" d="M160 588q0 127 43 230.5t113.5 177t158.5 116.5t178 51l41 209h101l-41 -211q76 -10 130 -49t95 -86l-96 -92q-35 41 -71 65.5t-85 32.5l-141 -715q66 4 121 29t102 60l55 -107q-66 -41 -137.5 -73.5t-165.5 -39.5l-43 -215h-102l43 217q-139 20 -219 123t-80 277z M315 614q0 -117 42 -192.5t128 -97.5l142 706q-61 -10 -117.5 -45t-99.5 -89t-69 -126t-26 -156z" />
<glyph unicode="&#xa3;" d="M8 0l19 94q147 72 221 197t74 272v17h-197l22 110l166 10q-4 49 -8 97.5t-4 89.5q0 104 32 187t87 141.5t132 90t167 31.5q104 0 174 -50t113 -120l-107 -84q-35 55 -81 90t-107 35q-113 0 -187.5 -88t-74.5 -243q0 -41 4 -85t8 -92h317l-24 -120h-287q-2 -141 -45 -245 t-135 -192l-2 -8h530l-24 -135h-783z" />
<glyph unicode="&#xa4;" d="M23 322l145 127q-14 33 -22.5 70.5t-8.5 84.5q0 92 33 174t90 144l-96 125l90 75l98 -129q53 37 112.5 57.5t123.5 20.5q63 0 114.5 -20.5t90.5 -55.5l149 129l72 -86l-150 -129q33 -70 33 -155q0 -92 -31.5 -171t-85.5 -139l109 -139l-88 -74l-111 140 q-53 -41 -115.5 -63.5t-128.5 -22.5q-131 0 -204 80l-148 -129zM285 621q0 -104 46 -161t132 -57q53 0 104 26t92 70t66 105.5t25 132.5q0 104 -46.5 160.5t-132.5 56.5q-53 0 -104 -25.5t-92 -70.5t-65.5 -106.5t-24.5 -130.5z" />
<glyph unicode="&#xa5;" d="M57 330l19 86h319l25 141h-318l19 88h278l-186 662h160l84 -361q14 -68 29.5 -136.5t31.5 -141.5h6q47 76 89 144.5t87 133.5l222 361h157l-442 -662h278l-20 -88h-317l-27 -141h319l-20 -86h-320l-65 -330h-156l68 330h-320z" />
<glyph unicode="&#xa6;" horiz-adv-x="473" d="M195 436h106v-948h-106v948zM195 592v944h106v-944h-106z" />
<glyph unicode="&#xa7;" horiz-adv-x="976" d="M31 31l84 102q53 -57 122.5 -95t143.5 -38q78 0 130 45t52 117q0 53 -32.5 92t-83 71.5t-108.5 63.5t-108.5 71t-83 93t-32.5 129q0 111 61.5 187.5t159.5 117.5q-33 55 -33 119q0 68 23.5 122t64.5 92t97.5 59.5t123.5 21.5q92 0 171 -42t139 -108l-88 -92 q-43 49 -100.5 84t-123.5 35q-63 0 -112 -40t-49 -112q0 -49 32.5 -85.5t82.5 -70.5t108.5 -68t108.5 -76t83 -97t33 -131q0 -119 -57.5 -186.5t-159.5 -114.5q27 -53 27 -113q0 -66 -25 -122t-70 -97t-105.5 -64.5t-133.5 -23.5q-92 0 -181.5 41t-160.5 113zM254 705 q0 -61 37 -103.5t91 -77.5t116.5 -67.5t111.5 -75.5q72 27 110 71t38 126q0 59 -36 103t-89 81t-113.5 71.5t-111.5 75.5q-68 -29 -111 -78t-43 -126z" />
<glyph unicode="&#xa8;" horiz-adv-x="1058" d="M436 1288q0 47 30.5 80t73.5 33q37 0 60.5 -22.5t23.5 -63.5q0 -47 -31.5 -78t-74.5 -31q-35 0 -58.5 21.5t-23.5 60.5zM776 1288q0 47 30.5 80t73.5 33q37 0 59.5 -22.5t22.5 -63.5q0 -47 -30.5 -78t-73.5 -31q-35 0 -58.5 21.5t-23.5 60.5z" />
<glyph unicode="&#xa9;" horiz-adv-x="1361" d="M74 545q0 152 53 294t150.5 252.5t234.5 178t303 67.5q119 0 218.5 -42t170 -116.5t110.5 -178t40 -228.5q0 -152 -53.5 -295t-151.5 -253.5t-235.5 -178.5t-303.5 -68q-119 0 -218 42t-169.5 117t-109.5 179.5t-39 229.5zM162 555q0 -109 30.5 -199t89 -155.5 t143.5 -102.5t191 -37q143 0 263 60.5t206 160t133.5 225.5t47.5 255q0 109 -31 199t-90.5 155.5t-144.5 102t-191 36.5q-143 0 -262 -60t-205 -159.5t-133 -225.5t-47 -255zM369 565q0 113 38.5 202t100 151.5t137.5 96.5t150 34q72 0 119 -31t81 -74l-75 -70 q-29 35 -61 53.5t-79 18.5q-49 0 -100 -26.5t-94 -74.5t-70 -114.5t-27 -146.5q0 -111 54.5 -167.5t146.5 -56.5q57 0 103.5 24t97.5 56l51 -80q-63 -47 -127.5 -75.5t-146.5 -28.5q-133 0 -216 78.5t-83 230.5z" />
<glyph unicode="&#xaa;" horiz-adv-x="724" d="M123 772q0 94 30.5 176t81 142.5t115 95.5t133.5 35q47 0 88 -23.5t64 -73.5h8l29 80h94l-131 -659h-96l12 98h-8q-47 -53 -106.5 -84t-121.5 -31q-88 0 -140 62.5t-52 181.5zM242 786q0 -82 31.5 -119.5t80.5 -37.5q47 0 102.5 33.5t102.5 93.5l53 272 q-27 53 -58.5 73.5t-66.5 20.5q-47 0 -91 -27.5t-77.5 -73.5t-55 -107.5t-21.5 -127.5z" />
<glyph unicode="&#xab;" horiz-adv-x="841" d="M82 461l22 127l320 303l57 -60l-291 -319l175 -330l-72 -45zM408 461l22 127l320 303l57 -60l-291 -319l175 -330l-72 -45z" />
<glyph unicode="&#xac;" d="M98 618v117h840v-524h-123v407h-717z" />
<glyph unicode="&#xad;" horiz-adv-x="612" d="M74 455l24 120h449l-27 -120h-446z" />
<glyph unicode="&#xae;" horiz-adv-x="831" d="M150 1008q0 86 30.5 165.5t84.5 142t129 100.5t163 38q68 0 128 -25.5t105.5 -71.5t73 -109.5t27.5 -139.5q0 -86 -31 -167t-86 -143.5t-130 -99t-163 -36.5q-68 0 -128 25.5t-105 70.5t-71.5 108.5t-26.5 141.5zM225 1016q0 -61 17.5 -112.5t51.5 -90.5t83 -60.5 t110 -21.5q68 0 128.5 30t104.5 80t69.5 117.5t25.5 141.5q0 123 -70.5 202.5t-193.5 79.5q-70 0 -129.5 -29.5t-103.5 -79.5t-68.5 -116.5t-24.5 -140.5zM346 854l84 414h135q59 0 94 -31t35 -88q0 -47 -26.5 -82t-73.5 -51l57 -162h-82l-45 143h-69l-31 -143h-78z M467 1059h45q47 0 73.5 22.5t26.5 59.5q0 61 -67 61h-51z" />
<glyph unicode="&#xaf;" horiz-adv-x="1058" d="M444 1231l21 110h479l-19 -110h-481z" />
<glyph unicode="&#xb0;" horiz-adv-x="641" d="M207 1112q0 59 21.5 111.5t57.5 92.5t85 63.5t104 23.5q94 0 155.5 -62.5t61.5 -164.5q0 -59 -21.5 -111.5t-57 -92.5t-84 -63.5t-103.5 -23.5q-96 0 -157.5 62.5t-61.5 164.5zM303 1116q0 -59 34 -100t95 -41q37 0 66.5 16.5t51 44t34 63.5t12.5 72q0 59 -34 101.5 t-95 42.5q-37 0 -67.5 -17.5t-52 -45t-33 -63.5t-11.5 -73z" />
<glyph unicode="&#xb1;" d="M98 0v119h840v-119h-840zM98 645v119h359v371h123v-371h358v-119h-360v-379h-123v379h-357z" />
<glyph unicode="&#xb2;" horiz-adv-x="722" d="M178 901l14 78q125 88 215.5 158.5t147.5 130t83.5 114t26.5 109.5q0 59 -32.5 93t-98.5 34q-43 0 -85 -27.5t-80 -68.5l-72 73q57 55 117.5 92t138.5 37q111 0 174 -57t63 -158q0 -63 -25.5 -122.5t-75.5 -119t-125 -124t-173 -138.5h334l-21 -104h-526z" />
<glyph unicode="&#xb3;" horiz-adv-x="718" d="M176 1040l84 60q29 -53 73 -88t111 -35q72 0 123 38t51 109q0 59 -51 102.5t-168 43.5l19 84q70 0 117 14t75.5 36.5t40.5 51.5t12 57q0 51 -32.5 82t-92.5 31q-84 0 -169 -68l-56 84q59 43 119.5 62.5t128.5 19.5q100 0 162.5 -51t62.5 -143q0 -76 -48 -135.5 t-138 -87.5q70 -25 104.5 -76t34.5 -105q0 -59 -23.5 -105t-62.5 -79t-92 -49.5t-111 -16.5q-100 0 -169.5 49.5t-104.5 114.5z" />
<glyph unicode="&#xb4;" horiz-adv-x="1058" d="M538 1169l238 289h168l-279 -289h-127z" />
<glyph unicode="&#xb5;" horiz-adv-x="1077" d="M-20 -391l276 1386h158l-125 -614q-8 -41 -12.5 -65.5t-4.5 -51.5q0 -76 35 -114.5t113 -38.5q59 0 131 43t164 137l141 704h154l-197 -995h-129l16 152h-8q-72 -72 -145.5 -121t-151.5 -49q-59 0 -105 22.5t-69 81.5l-26 -170l-60 -307h-155z" />
<glyph unicode="&#xb6;" horiz-adv-x="1095" d="M150 825q0 131 47 229.5t124.5 162t179 95t210.5 31.5h98l-178 -878h-31q-92 0 -174 23.5t-143.5 68.5t-97 112.5t-35.5 155.5zM614 -164l299 1507h158l-301 -1507h-156z" />
<glyph unicode="&#xb7;" horiz-adv-x="495" d="M162 651q0 53 39 98t98 45q45 0 70 -29.5t25 -74.5q0 -53 -38.5 -97.5t-97.5 -44.5q-45 0 -70.5 29t-25.5 74z" />
<glyph unicode="&#xb8;" horiz-adv-x="1058" d="M198 -365q82 14 137.5 43t55.5 80q0 35 -24.5 53.5t-84.5 34.5l111 160h106l-77 -115q37 -14 64.5 -41.5t27.5 -74.5q0 -49 -26 -86t-69 -62.5t-98 -41t-115 -21.5z" />
<glyph unicode="&#xb9;" horiz-adv-x="729" d="M364 1540l17 80q80 12 128 29.5t97 50.5h96l-157 -799h-123l127 639h-185z" />
<glyph unicode="&#xba;" horiz-adv-x="712" d="M121 795q0 96 31.5 175t83 134t117 86t132.5 31q111 0 177.5 -70t66.5 -195q0 -98 -31.5 -177t-83 -134t-118 -86t-134.5 -31q-111 0 -176 70t-65 197zM238 801q0 -84 34.5 -129t100.5 -45q47 0 90 25.5t75.5 69.5t52 103.5t19.5 124.5q0 82 -33.5 128t-99.5 46 q-49 0 -92 -25.5t-76 -70.5t-52 -103.5t-19 -123.5z" />
<glyph unicode="&#xbb;" horiz-adv-x="841" d="M47 197l289 319l-174 330l74 45l210 -324l-22 -127l-320 -303zM373 197l289 319l-174 330l74 45l210 -324l-22 -127l-320 -303z" />
<glyph unicode="&#xbc;" horiz-adv-x="1531" d="M243 1192l17 80q80 12 128 29.5t97 50.5h96l-157 -799h-123l127 639h-185zM248 -25l991 1401h107l-992 -1401h-106zM821 217l15 68l438 514h133l-98 -494h117l-19 -88h-115l-43 -217h-110l43 217h-361zM963 305h237l31 156l53 221h-8l-137 -172z" />
<glyph unicode="&#xbd;" horiz-adv-x="1581" d="M203 -25l991 1401h107l-992 -1401h-106zM235 1192l17 80q80 12 128 29.5t97 50.5h96l-157 -799h-123l127 639h-185zM860 0l14 78q125 88 215.5 158.5t147.5 130t83.5 114t26.5 109.5q0 59 -32.5 93t-98.5 34q-43 0 -85 -27.5t-80 -68.5l-72 73q57 55 117.5 92t138.5 37 q111 0 174 -57t63 -158q0 -63 -25.5 -122.5t-75.5 -119t-125 -124t-173 -138.5h334l-21 -104h-526z" />
<glyph unicode="&#xbe;" horiz-adv-x="1564" d="M94 692l84 60q29 -53 73 -88t111 -35q72 0 123 38t51 109q0 59 -51 102.5t-168 43.5l19 84q70 0 117 14t75.5 36.5t40.5 51.5t12 57q0 51 -32.5 82t-92.5 31q-84 0 -169 -68l-56 84q59 43 119.5 62.5t128.5 19.5q100 0 162.5 -51t62.5 -143q0 -76 -48 -135.5t-138 -87.5 q70 -25 104.5 -76t34.5 -105q0 -59 -23.5 -105t-62.5 -79t-92 -49.5t-111 -16.5q-100 0 -169.5 49.5t-104.5 114.5zM318 -25l991 1401h107l-992 -1401h-106zM858 217l15 68l438 514h133l-98 -494h117l-19 -88h-115l-43 -217h-110l43 217h-361zM1000 305h237l31 156l53 221 h-8l-137 -172z" />
<glyph unicode="&#xbf;" horiz-adv-x="837" d="M-8 -115q0 82 29.5 145.5t73.5 117t97.5 101.5t100.5 100t81 111.5t42 137.5l135 -12q-6 -86 -38 -151.5t-77 -120t-96 -100.5t-94 -93t-72 -97.5t-29 -113.5q0 -84 46.5 -131t127.5 -47q59 0 116 28.5t102 77.5l81 -94q-59 -63 -141 -103t-174 -40q-143 0 -227 74.5 t-84 209.5zM424 881q0 53 37 97t96 44q45 0 71.5 -28.5t26.5 -73.5q0 -51 -38.5 -97.5t-98.5 -46.5q-47 0 -70.5 30t-23.5 75z" />
<glyph unicode="&#xc0;" horiz-adv-x="1044" d="M-109 0l730 1343h184l156 -1343h-166l-37 420h-475l-215 -420h-177zM346 543h399l-20 229q-10 106 -19.5 214t-17.5 224h-8q-53 -117 -105.5 -222t-109.5 -216zM494 1671h168l139 -225h-125z" />
<glyph unicode="&#xc1;" horiz-adv-x="1044" d="M-109 0l730 1343h184l156 -1343h-166l-37 420h-475l-215 -420h-177zM346 543h399l-20 229q-10 106 -19.5 214t-17.5 224h-8q-53 -117 -105.5 -222t-109.5 -216zM603 1446l219 225h178l-262 -225h-135z" />
<glyph unicode="&#xc2;" horiz-adv-x="1044" d="M-109 0l730 1343h184l156 -1343h-166l-37 420h-475l-215 -420h-177zM346 543h399l-20 229q-10 106 -19.5 214t-17.5 224h-8q-53 -117 -105.5 -222t-109.5 -216zM441 1446l233 225h148l145 -225h-121l-104 143h-6l-160 -143h-135z" />
<glyph unicode="&#xc3;" horiz-adv-x="1044" d="M-109 0l730 1343h184l156 -1343h-166l-37 420h-475l-215 -420h-177zM346 543h399l-20 229q-10 106 -19.5 214t-17.5 224h-8q-53 -117 -105.5 -222t-109.5 -216zM422 1456q10 45 30.5 84t47.5 68.5t57.5 46t65.5 16.5q39 0 65.5 -17.5t50 -39t46 -38.5t53.5 -17 q33 0 57.5 28.5t42.5 79.5h90q-23 -92 -78 -153.5t-124 -61.5q-39 0 -65.5 17.5t-49 39t-45.5 40t-53 18.5q-33 0 -57.5 -30t-43.5 -81h-90z" />
<glyph unicode="&#xc4;" horiz-adv-x="1044" d="M-109 0l730 1343h184l156 -1343h-166l-37 420h-475l-215 -420h-177zM346 543h399l-20 229q-10 106 -19.5 214t-17.5 224h-8q-53 -117 -105.5 -222t-109.5 -216zM465 1546q0 45 31 79t74 34q35 0 58.5 -21.5t23.5 -62.5q0 -43 -31 -77t-74 -34q-35 0 -58.5 21.5 t-23.5 60.5zM805 1546q0 45 31 79t74 34q35 0 57.5 -21.5t22.5 -62.5q0 -43 -30 -77t-73 -34q-35 0 -58.5 21.5t-23.5 60.5z" />
<glyph unicode="&#xc5;" horiz-adv-x="1044" d="M-109 0l730 1343h184l156 -1343h-166l-37 420h-475l-215 -420h-177zM346 543h399l-20 229q-10 106 -19.5 214t-17.5 224h-8q-53 -117 -105.5 -222t-109.5 -216zM547 1589q0 43 16.5 80t44 64.5t64.5 43t78 15.5q72 0 122 -39t50 -123q0 -43 -16.5 -80t-44 -64.5 t-64.5 -43t-78 -15.5q-72 0 -122 39t-50 123zM635 1597q0 -43 23.5 -69.5t64.5 -26.5q45 0 78 35t33 88q0 43 -23.5 68.5t-64.5 25.5q-45 0 -78 -34.5t-33 -86.5z" />
<glyph unicode="&#xc6;" horiz-adv-x="1644" d="M-68 0l940 1343h824l-29 -133h-559l-86 -436h469l-27 -135h-467l-104 -504h577l-26 -135h-735l79 397h-405l-268 -397h-183zM469 524h344l139 699h-6q-78 -115 -152.5 -223.5t-152.5 -221.5z" />
<glyph unicode="&#xc7;" horiz-adv-x="1126" d="M117 518q0 158 50 310.5t141 272.5t219 193.5t284 73.5q117 0 199 -56.5t131 -142.5l-111 -84q-41 66 -95 106t-132 40q-121 0 -217.5 -63.5t-164 -164t-104 -224.5t-36.5 -247q0 -92 19 -168.5t60 -132t106.5 -87t156.5 -31.5q82 0 150.5 32.5t133.5 87.5l72 -102 q-74 -66 -168 -111t-217 -45q-115 0 -204 40t-149.5 112t-92 171t-31.5 220zM331 -365q82 14 137.5 43t55.5 80q0 35 -24.5 53.5t-84.5 34.5l111 160h106l-77 -115q37 -14 64.5 -41.5t27.5 -74.5q0 -49 -26 -86t-69 -62.5t-98 -41t-115 -21.5z" />
<glyph unicode="&#xc8;" horiz-adv-x="1030" d="M72 0l268 1343h741l-26 -133h-584l-86 -436h494l-29 -135h-490l-104 -504h602l-29 -135h-757zM516 1671h168l139 -225h-125z" />
<glyph unicode="&#xc9;" horiz-adv-x="1030" d="M72 0l268 1343h741l-26 -133h-584l-86 -436h494l-29 -135h-490l-104 -504h602l-29 -135h-757zM625 1446l219 225h178l-262 -225h-135z" />
<glyph unicode="&#xca;" horiz-adv-x="1030" d="M72 0l268 1343h741l-26 -133h-584l-86 -436h494l-29 -135h-490l-104 -504h602l-29 -135h-757zM463 1446l233 225h148l145 -225h-121l-104 143h-6l-160 -143h-135z" />
<glyph unicode="&#xcb;" horiz-adv-x="1030" d="M72 0l268 1343h741l-26 -133h-584l-86 -436h494l-29 -135h-490l-104 -504h602l-29 -135h-757zM487 1546q0 45 31 79t74 34q35 0 58.5 -21.5t23.5 -62.5q0 -43 -31 -77t-74 -34q-35 0 -58.5 21.5t-23.5 60.5zM827 1546q0 45 31 79t74 34q35 0 57.5 -21.5t22.5 -62.5 q0 -43 -30 -77t-73 -34q-35 0 -58.5 21.5t-23.5 60.5z" />
<glyph unicode="&#xcc;" horiz-adv-x="516" d="M72 0l268 1343h160l-269 -1343h-159zM211 1671h168l139 -225h-125z" />
<glyph unicode="&#xcd;" horiz-adv-x="516" d="M72 0l268 1343h160l-269 -1343h-159zM320 1446l219 225h178l-262 -225h-135z" />
<glyph unicode="&#xce;" horiz-adv-x="516" d="M72 0l268 1343h160l-269 -1343h-159zM158 1446l233 225h148l145 -225h-121l-104 143h-6l-160 -143h-135z" />
<glyph unicode="&#xcf;" horiz-adv-x="516" d="M72 0l268 1343h160l-269 -1343h-159zM182 1546q0 45 31 79t74 34q35 0 58.5 -21.5t23.5 -62.5q0 -43 -31 -77t-74 -34q-35 0 -58.5 21.5t-23.5 60.5zM522 1546q0 45 31 79t74 34q35 0 57.5 -21.5t22.5 -62.5q0 -43 -30 -77t-73 -34q-35 0 -58.5 21.5t-23.5 60.5z" />
<glyph unicode="&#xd0;" horiz-adv-x="1249" d="M96 664l19 84l143 6l119 589h250q281 0 425 -138t144 -386q0 -182 -50 -333.5t-143.5 -259t-228.5 -167t-305 -59.5h-360l133 664h-146zM293 131h176q131 0 235.5 50t178 139.5t112.5 214t39 274.5q0 193 -104.5 299t-308.5 106h-111l-92 -460h307l-20 -90h-306z" />
<glyph unicode="&#xd1;" horiz-adv-x="1267" d="M72 0l268 1343h160l307 -860l86 -280h8q12 100 25.5 211.5t36.5 216.5l141 712h153l-268 -1343h-158l-303 858l-88 289h-8q-12 -104 -27.5 -213t-35.5 -211l-144 -723h-153zM528 1456q10 45 30.5 84t47.5 68.5t57.5 46t65.5 16.5q39 0 65.5 -17.5t50 -39t46 -38.5 t53.5 -17q33 0 57.5 28.5t42.5 79.5h90q-23 -92 -78 -153.5t-124 -61.5q-39 0 -65.5 17.5t-49 39t-45.5 40t-53 18.5q-33 0 -57.5 -30t-43.5 -81h-90z" />
<glyph unicode="&#xd2;" horiz-adv-x="1296" d="M123 539q0 154 48 302t134 266t206 189.5t265 71.5q113 0 200 -40t145.5 -113.5t89 -177t30.5 -230.5q0 -154 -48 -303.5t-134 -267t-207 -189.5t-264 -72q-113 0 -200 40t-145.5 114t-89 178.5t-30.5 231.5zM285 551q0 -98 18.5 -179t56 -138.5t97 -89t139.5 -31.5 q109 0 198 62.5t152.5 160.5t98 219t34.5 238q0 199 -75.5 318.5t-235.5 119.5q-109 0 -198 -61.5t-152.5 -160t-98 -219t-34.5 -239.5zM614 1671h168l139 -225h-125z" />
<glyph unicode="&#xd3;" horiz-adv-x="1296" d="M123 539q0 154 48 302t134 266t206 189.5t265 71.5q113 0 200 -40t145.5 -113.5t89 -177t30.5 -230.5q0 -154 -48 -303.5t-134 -267t-207 -189.5t-264 -72q-113 0 -200 40t-145.5 114t-89 178.5t-30.5 231.5zM285 551q0 -98 18.5 -179t56 -138.5t97 -89t139.5 -31.5 q109 0 198 62.5t152.5 160.5t98 219t34.5 238q0 199 -75.5 318.5t-235.5 119.5q-109 0 -198 -61.5t-152.5 -160t-98 -219t-34.5 -239.5zM723 1446l219 225h178l-262 -225h-135z" />
<glyph unicode="&#xd4;" horiz-adv-x="1296" d="M123 539q0 154 48 302t134 266t206 189.5t265 71.5q113 0 200 -40t145.5 -113.5t89 -177t30.5 -230.5q0 -154 -48 -303.5t-134 -267t-207 -189.5t-264 -72q-113 0 -200 40t-145.5 114t-89 178.5t-30.5 231.5zM285 551q0 -98 18.5 -179t56 -138.5t97 -89t139.5 -31.5 q109 0 198 62.5t152.5 160.5t98 219t34.5 238q0 199 -75.5 318.5t-235.5 119.5q-109 0 -198 -61.5t-152.5 -160t-98 -219t-34.5 -239.5zM561 1446l233 225h148l145 -225h-121l-104 143h-6l-160 -143h-135z" />
<glyph unicode="&#xd5;" horiz-adv-x="1296" d="M123 539q0 154 48 302t134 266t206 189.5t265 71.5q113 0 200 -40t145.5 -113.5t89 -177t30.5 -230.5q0 -154 -48 -303.5t-134 -267t-207 -189.5t-264 -72q-113 0 -200 40t-145.5 114t-89 178.5t-30.5 231.5zM285 551q0 -98 18.5 -179t56 -138.5t97 -89t139.5 -31.5 q109 0 198 62.5t152.5 160.5t98 219t34.5 238q0 199 -75.5 318.5t-235.5 119.5q-109 0 -198 -61.5t-152.5 -160t-98 -219t-34.5 -239.5zM542 1456q10 45 30.5 84t47.5 68.5t57.5 46t65.5 16.5q39 0 65.5 -17.5t50 -39t46 -38.5t53.5 -17q33 0 57.5 28.5t42.5 79.5h90 q-23 -92 -78 -153.5t-124 -61.5q-39 0 -65.5 17.5t-49 39t-45.5 40t-53 18.5q-33 0 -57.5 -30t-43.5 -81h-90z" />
<glyph unicode="&#xd6;" horiz-adv-x="1296" d="M123 539q0 154 48 302t134 266t206 189.5t265 71.5q113 0 200 -40t145.5 -113.5t89 -177t30.5 -230.5q0 -154 -48 -303.5t-134 -267t-207 -189.5t-264 -72q-113 0 -200 40t-145.5 114t-89 178.5t-30.5 231.5zM285 551q0 -98 18.5 -179t56 -138.5t97 -89t139.5 -31.5 q109 0 198 62.5t152.5 160.5t98 219t34.5 238q0 199 -75.5 318.5t-235.5 119.5q-109 0 -198 -61.5t-152.5 -160t-98 -219t-34.5 -239.5zM585 1546q0 45 31 79t74 34q35 0 58.5 -21.5t23.5 -62.5q0 -43 -31 -77t-74 -34q-35 0 -58.5 21.5t-23.5 60.5zM925 1546q0 45 31 79 t74 34q35 0 57.5 -21.5t22.5 -62.5q0 -43 -30 -77t-73 -34q-35 0 -58.5 21.5t-23.5 60.5z" />
<glyph unicode="&#xd7;" d="M133 360l303 318l-303 317l82 82l303 -317l303 317l84 -82l-305 -317l305 -318l-84 -84l-303 320l-303 -320z" />
<glyph unicode="&#xd8;" horiz-adv-x="1296" d="M-6 10l194 207q-66 135 -65 322q0 154 48 302t134 266t206 189.5t265 71.5q115 0 201 -40t145 -116l183 195l73 -72l-198 -213q61 -133 61 -315q0 -154 -48 -303.5t-134 -267t-207 -189.5t-264 -72q-111 0 -196 38t-144 110l-172 -184zM285 551q0 -117 24 -205l705 750 q-39 66 -99.5 100.5t-146.5 34.5q-109 0 -198 -61.5t-152.5 -160t-98 -219t-34.5 -239.5zM356 240q39 -59 97.5 -93t142.5 -34q109 0 198 62.5t152.5 160.5t98 219t34.5 238q0 106 -22 196z" />
<glyph unicode="&#xd9;" horiz-adv-x="1261" d="M162 399q0 43 5 91.5t15 99.5l152 753h160l-154 -768q-18 -92 -18 -161q0 -145 65.5 -223t206.5 -78q57 0 109.5 22.5t97.5 71.5t78.5 126t56.5 187l166 823h155l-167 -829q-29 -145 -77 -247.5t-113.5 -167t-144.5 -94.5t-169 -30q-205 0 -314.5 106.5t-109.5 317.5z M594 1671h168l139 -225h-125z" />
<glyph unicode="&#xda;" horiz-adv-x="1261" d="M162 399q0 43 5 91.5t15 99.5l152 753h160l-154 -768q-18 -92 -18 -161q0 -145 65.5 -223t206.5 -78q57 0 109.5 22.5t97.5 71.5t78.5 126t56.5 187l166 823h155l-167 -829q-29 -145 -77 -247.5t-113.5 -167t-144.5 -94.5t-169 -30q-205 0 -314.5 106.5t-109.5 317.5z M703 1446l219 225h178l-262 -225h-135z" />
<glyph unicode="&#xdb;" horiz-adv-x="1261" d="M162 399q0 43 5 91.5t15 99.5l152 753h160l-154 -768q-18 -92 -18 -161q0 -145 65.5 -223t206.5 -78q57 0 109.5 22.5t97.5 71.5t78.5 126t56.5 187l166 823h155l-167 -829q-29 -145 -77 -247.5t-113.5 -167t-144.5 -94.5t-169 -30q-205 0 -314.5 106.5t-109.5 317.5z M541 1446l233 225h148l145 -225h-121l-104 143h-6l-160 -143h-135z" />
<glyph unicode="&#xdc;" horiz-adv-x="1261" d="M162 399q0 43 5 91.5t15 99.5l152 753h160l-154 -768q-18 -92 -18 -161q0 -145 65.5 -223t206.5 -78q57 0 109.5 22.5t97.5 71.5t78.5 126t56.5 187l166 823h155l-167 -829q-29 -145 -77 -247.5t-113.5 -167t-144.5 -94.5t-169 -30q-205 0 -314.5 106.5t-109.5 317.5z M565 1546q0 45 31 79t74 34q35 0 58.5 -21.5t23.5 -62.5q0 -43 -31 -77t-74 -34q-35 0 -58.5 21.5t-23.5 60.5zM905 1546q0 45 31 79t74 34q35 0 57.5 -21.5t22.5 -62.5q0 -43 -30 -77t-73 -34q-35 0 -58.5 21.5t-23.5 60.5z" />
<glyph unicode="&#xdd;" horiz-adv-x="944" d="M170 1343h164l92 -387q18 -74 33.5 -143.5t34.5 -146.5h8q47 76 91 147.5t93 144.5l254 385h170l-561 -819l-107 -524h-157l104 524zM527 1446l219 225h178l-262 -225h-135z" />
<glyph unicode="&#xde;" horiz-adv-x="1150" d="M72 0l268 1352h160l-47 -236h235q92 0 167 -18.5t128 -58.5t83 -102.5t30 -148.5q0 -123 -44 -213t-122 -148t-185.5 -87t-236.5 -29h-217l-62 -311h-157zM319 440h193q211 0 318.5 83t107.5 243q0 117 -76 169t-221 52h-215z" />
<glyph unicode="&#xdf;" horiz-adv-x="1136" d="M63 0l216 1075q18 84 55 158t91 129t126 88t158 33q61 0 114.5 -16.5t93 -50.5t63.5 -85t24 -119q0 -63 -20.5 -111t-50.5 -87t-64.5 -71t-64.5 -62.5t-50.5 -63.5t-20.5 -74t22.5 -71.5t55.5 -59t73 -58.5t72.5 -65.5t55 -82t22.5 -109.5q0 -68 -25.5 -126t-71.5 -101 t-107.5 -69t-135.5 -26q-76 0 -149.5 26t-136.5 77l71 104q47 -39 99.5 -61.5t115.5 -22.5q80 0 136.5 50.5t56.5 127.5q0 49 -22.5 86t-57.5 68t-74 59.5t-73.5 61.5t-57 72t-22.5 92t20.5 95t50 77t65.5 67.5t65.5 68.5t50 77t20.5 96q0 70 -35 115t-115 45 q-53 0 -97 -25.5t-78.5 -68.5t-59.5 -100.5t-39 -123.5l-209 -1038h-156z" />
<glyph unicode="&#xe0;" horiz-adv-x="1099" d="M80 336q0 143 45 268t121 217t172 145.5t200 53.5q80 0 142.5 -41t97.5 -109h8l39 125h127l-198 -995h-129l16 147h-8q-72 -78 -162 -125t-184 -47q-131 0 -209 92.5t-78 268.5zM242 360q0 -129 49 -191.5t133 -62.5q78 0 159 46.5t154 144.5l90 444q-43 78 -94 113 t-108 35q-74 0 -143.5 -44t-123 -118t-85 -169t-31.5 -198zM514 1458h153l121 -289h-114z" />
<glyph unicode="&#xe1;" horiz-adv-x="1099" d="M80 336q0 143 45 268t121 217t172 145.5t200 53.5q80 0 142.5 -41t97.5 -109h8l39 125h127l-198 -995h-129l16 147h-8q-72 -78 -162 -125t-184 -47q-131 0 -209 92.5t-78 268.5zM242 360q0 -129 49 -191.5t133 -62.5q78 0 159 46.5t154 144.5l90 444q-43 78 -94 113 t-108 35q-74 0 -143.5 -44t-123 -118t-85 -169t-31.5 -198zM532 1169l238 289h168l-279 -289h-127z" />
<glyph unicode="&#xe2;" horiz-adv-x="1099" d="M80 336q0 143 45 268t121 217t172 145.5t200 53.5q80 0 142.5 -41t97.5 -109h8l39 125h127l-198 -995h-129l16 147h-8q-72 -78 -162 -125t-184 -47q-131 0 -209 92.5t-78 268.5zM242 360q0 -129 49 -191.5t133 -62.5q78 0 159 46.5t154 144.5l90 444q-43 78 -94 113 t-108 35q-74 0 -143.5 -44t-123 -118t-85 -169t-31.5 -198zM416 1169l249 289h117l135 -289h-108l-97 189h-8l-170 -189h-118z" />
<glyph unicode="&#xe3;" horiz-adv-x="1099" d="M80 336q0 143 45 268t121 217t172 145.5t200 53.5q80 0 142.5 -41t97.5 -109h8l39 125h127l-198 -995h-129l16 147h-8q-72 -78 -162 -125t-184 -47q-131 0 -209 92.5t-78 268.5zM242 360q0 -129 49 -191.5t133 -62.5q78 0 159 46.5t154 144.5l90 444q-43 78 -94 113 t-108 35q-74 0 -143.5 -44t-123 -118t-85 -169t-31.5 -198zM397 1188q27 92 77 150.5t116 58.5q43 0 71.5 -17.5t51 -37t44 -37t54.5 -17.5q27 0 49 29t43 76h90q-27 -92 -77 -150.5t-115 -58.5q-45 0 -73 17.5t-50.5 36.5t-45 36.5t-55.5 17.5q-25 0 -47 -28.5t-43 -75.5 h-90z" />
<glyph unicode="&#xe4;" horiz-adv-x="1099" d="M80 336q0 143 45 268t121 217t172 145.5t200 53.5q80 0 142.5 -41t97.5 -109h8l39 125h127l-198 -995h-129l16 147h-8q-72 -78 -162 -125t-184 -47q-131 0 -209 92.5t-78 268.5zM242 360q0 -129 49 -191.5t133 -62.5q78 0 159 46.5t154 144.5l90 444q-43 78 -94 113 t-108 35q-74 0 -143.5 -44t-123 -118t-85 -169t-31.5 -198zM430 1288q0 47 30.5 80t73.5 33q37 0 60.5 -22.5t23.5 -63.5q0 -47 -31.5 -78t-74.5 -31q-35 0 -58.5 21.5t-23.5 60.5zM770 1288q0 47 30.5 80t73.5 33q37 0 59.5 -22.5t22.5 -63.5q0 -47 -30.5 -78t-73.5 -31 q-35 0 -58.5 21.5t-23.5 60.5z" />
<glyph unicode="&#xe5;" horiz-adv-x="1099" d="M80 336q0 143 45 268t121 217t172 145.5t200 53.5q80 0 142.5 -41t97.5 -109h8l39 125h127l-198 -995h-129l16 147h-8q-72 -78 -162 -125t-184 -47q-131 0 -209 92.5t-78 268.5zM242 360q0 -129 49 -191.5t133 -62.5q78 0 159 46.5t154 144.5l90 444q-43 78 -94 113 t-108 35q-74 0 -143.5 -44t-123 -118t-85 -169t-31.5 -198zM506 1274q0 43 15 81t43 66.5t64.5 45t77.5 16.5q74 0 122 -43t48 -125q0 -43 -15 -81t-42 -66.5t-63.5 -45t-77.5 -16.5q-74 0 -123 43t-49 125zM596 1280q0 -45 22.5 -72.5t63.5 -27.5q43 0 74.5 38.5t31.5 92.5 q0 43 -22.5 70.5t-63.5 27.5q-43 0 -74.5 -38t-31.5 -91z" />
<glyph unicode="&#xe6;" horiz-adv-x="1558" d="M66 217q0 106 48 180t134 121t205.5 70.5t263.5 27.5q6 29 8 48.5t2 42.5q0 92 -40 139t-132 47q-66 0 -136.5 -24.5t-142.5 -65.5l-43 115q78 43 170.5 72.5t184.5 29.5q102 0 168.5 -48t83.5 -147q70 92 158.5 143.5t183.5 51.5q84 0 142 -27.5t95 -76t54.5 -115 t17.5 -142.5q0 -59 -13.5 -112t-23.5 -82h-620q-12 -82 0 -149.5t44.5 -114.5t83 -74t115.5 -27q59 0 117.5 26t105.5 60l62 -104q-59 -43 -139 -75t-176 -32q-109 0 -194 56.5t-120 140.5q-98 -92 -199.5 -144.5t-211.5 -52.5q-53 0 -99.5 15.5t-81.5 46.5t-55 76t-20 104z M219 250q0 -72 45 -111t115 -39q63 0 145 43t168 133q-8 66 -7 118t11 118q-223 -6 -350 -71.5t-127 -190.5zM850 571h496q4 29 7 51.5t3 51.5q0 43 -10.5 83t-33 70.5t-59 49t-90.5 18.5q-47 0 -95 -22.5t-90 -65.5t-76 -102.5t-52 -133.5z" />
<glyph unicode="&#xe7;" horiz-adv-x="890" d="M76 375q0 139 46 257t123 204t177 135t209 49q90 0 151.5 -35t106.5 -86l-92 -98q-39 47 -78 68.5t-98 21.5q-74 0 -143.5 -41t-124 -109.5t-86 -161t-31.5 -194.5q0 -135 58 -207t177 -72q66 0 120 27t101 62l70 -103q-53 -41 -131 -79t-189 -38q-164 0 -265 103.5 t-101 296.5zM178 -365q82 14 137.5 43t55.5 80q0 35 -24.5 53.5t-84.5 34.5l111 160h106l-77 -115q37 -14 64.5 -41.5t27.5 -74.5q0 -49 -26 -86t-69 -62.5t-98 -41t-115 -21.5z" />
<glyph unicode="&#xe8;" horiz-adv-x="985" d="M76 391q0 141 47 257t121.5 199t170 128t193.5 45q84 0 142.5 -27.5t95.5 -76t53 -115t16 -142.5q0 -59 -12 -112t-22 -82h-648q-14 -96 2.5 -165t54.5 -114t93 -65.5t121 -20.5q59 0 117.5 26t105.5 60l61 -104q-59 -43 -141 -75t-180 -32q-178 0 -284.5 107.5 t-106.5 308.5zM250 571h522q4 25 7 49.5t3 53.5q0 43 -10 83t-32.5 70.5t-59.5 49t-90 18.5q-55 0 -107.5 -22.5t-97.5 -65.5t-81 -102.5t-54 -133.5zM484 1458h153l121 -289h-114z" />
<glyph unicode="&#xe9;" horiz-adv-x="985" d="M76 391q0 141 47 257t121.5 199t170 128t193.5 45q84 0 142.5 -27.5t95.5 -76t53 -115t16 -142.5q0 -59 -12 -112t-22 -82h-648q-14 -96 2.5 -165t54.5 -114t93 -65.5t121 -20.5q59 0 117.5 26t105.5 60l61 -104q-59 -43 -141 -75t-180 -32q-178 0 -284.5 107.5 t-106.5 308.5zM250 571h522q4 25 7 49.5t3 53.5q0 43 -10 83t-32.5 70.5t-59.5 49t-90 18.5q-55 0 -107.5 -22.5t-97.5 -65.5t-81 -102.5t-54 -133.5zM502 1169l238 289h168l-279 -289h-127z" />
<glyph unicode="&#xea;" horiz-adv-x="985" d="M76 391q0 141 47 257t121.5 199t170 128t193.5 45q84 0 142.5 -27.5t95.5 -76t53 -115t16 -142.5q0 -59 -12 -112t-22 -82h-648q-14 -96 2.5 -165t54.5 -114t93 -65.5t121 -20.5q59 0 117.5 26t105.5 60l61 -104q-59 -43 -141 -75t-180 -32q-178 0 -284.5 107.5 t-106.5 308.5zM250 571h522q4 25 7 49.5t3 53.5q0 43 -10 83t-32.5 70.5t-59.5 49t-90 18.5q-55 0 -107.5 -22.5t-97.5 -65.5t-81 -102.5t-54 -133.5zM386 1169l249 289h117l135 -289h-108l-97 189h-8l-170 -189h-118z" />
<glyph unicode="&#xeb;" horiz-adv-x="985" d="M76 391q0 141 47 257t121.5 199t170 128t193.5 45q84 0 142.5 -27.5t95.5 -76t53 -115t16 -142.5q0 -59 -12 -112t-22 -82h-648q-14 -96 2.5 -165t54.5 -114t93 -65.5t121 -20.5q59 0 117.5 26t105.5 60l61 -104q-59 -43 -141 -75t-180 -32q-178 0 -284.5 107.5 t-106.5 308.5zM250 571h522q4 25 7 49.5t3 53.5q0 43 -10 83t-32.5 70.5t-59.5 49t-90 18.5q-55 0 -107.5 -22.5t-97.5 -65.5t-81 -102.5t-54 -133.5zM400 1288q0 47 30.5 80t73.5 33q37 0 60.5 -22.5t23.5 -63.5q0 -47 -31.5 -78t-74.5 -31q-35 0 -58.5 21.5t-23.5 60.5z M740 1288q0 47 30.5 80t73.5 33q37 0 59.5 -22.5t22.5 -63.5q0 -47 -30.5 -78t-73.5 -31q-35 0 -58.5 21.5t-23.5 60.5z" />
<glyph unicode="&#xec;" horiz-adv-x="485" d="M63 0l199 995h158l-201 -995h-156zM221 1458h153l121 -289h-114z" />
<glyph unicode="&#xed;" horiz-adv-x="485" d="M63 0l199 995h158l-201 -995h-156zM239 1169l238 289h168l-279 -289h-127z" />
<glyph unicode="&#xee;" horiz-adv-x="485" d="M63 0l199 995h158l-201 -995h-156zM123 1169l249 289h117l135 -289h-108l-97 189h-8l-170 -189h-118z" />
<glyph unicode="&#xef;" horiz-adv-x="485" d="M63 0l199 995h158l-201 -995h-156zM137 1288q0 47 30.5 80t73.5 33q37 0 60.5 -22.5t23.5 -63.5q0 -47 -31.5 -78t-74.5 -31q-35 0 -58.5 21.5t-23.5 60.5zM477 1288q0 47 30.5 80t73.5 33q37 0 59.5 -22.5t22.5 -63.5q0 -47 -30.5 -78t-73.5 -31q-35 0 -58.5 21.5 t-23.5 60.5z" />
<glyph unicode="&#xf0;" horiz-adv-x="1073" d="M88 352q0 106 33 208t94 180.5t148.5 126.5t197.5 48q74 0 138.5 -38.5t109.5 -106.5q-8 123 -39 219t-86 176l-301 -125l-33 84l277 115q-76 86 -195 162l74 94q72 -41 134 -92t116 -111l297 123l32 -84l-272 -112q70 -102 109 -227.5t39 -280.5q0 -145 -35 -278.5 t-101.5 -235t-163 -162t-219.5 -60.5q-76 0 -140 29t-112.5 79t-75 118.5t-26.5 150.5zM231 367q0 -53 15.5 -100.5t44 -83.5t72 -56.5t98.5 -20.5q74 0 135 42t106.5 114t73 167t33.5 204q-41 61 -97.5 109.5t-136.5 48.5t-143 -37t-107 -96.5t-69 -135.5t-25 -155z" />
<glyph unicode="&#xf1;" horiz-adv-x="1075" d="M63 0l197 995h129l-14 -149h8q86 74 170 124t178 50q127 0 181.5 -65.5t54.5 -182.5q0 -35 -3 -65.5t-14 -71.5l-127 -635h-155l123 614q8 41 12 66t4 51q0 76 -35 115t-113 39q-59 0 -131.5 -43t-167.5 -137l-141 -705h-156zM430 1188q27 92 77 150.5t116 58.5 q43 0 71.5 -17.5t51 -37t44 -37t54.5 -17.5q27 0 49 29t43 76h90q-27 -92 -77 -150.5t-115 -58.5q-45 0 -73 17.5t-50.5 36.5t-45 36.5t-55.5 17.5q-25 0 -47 -28.5t-43 -75.5h-90z" />
<glyph unicode="&#xf2;" horiz-adv-x="1054" d="M80 375q0 141 45 260t121 204t172 133t198 48q162 0 259.5 -106.5t97.5 -292.5q0 -141 -46 -260t-121 -204t-172.5 -133.5t-199.5 -48.5q-162 0 -258 106.5t-96 293.5zM238 385q0 -135 54 -207t159 -72q70 0 134 40t115.5 108t82 160t30.5 196q0 135 -54.5 208t-158.5 73 q-68 0 -133.5 -40t-116.5 -108.5t-81.5 -161t-30.5 -196.5zM520 1458h153l121 -289h-114z" />
<glyph unicode="&#xf3;" horiz-adv-x="1054" d="M80 375q0 141 45 260t121 204t172 133t198 48q162 0 259.5 -106.5t97.5 -292.5q0 -141 -46 -260t-121 -204t-172.5 -133.5t-199.5 -48.5q-162 0 -258 106.5t-96 293.5zM238 385q0 -135 54 -207t159 -72q70 0 134 40t115.5 108t82 160t30.5 196q0 135 -54.5 208t-158.5 73 q-68 0 -133.5 -40t-116.5 -108.5t-81.5 -161t-30.5 -196.5zM538 1169l238 289h168l-279 -289h-127z" />
<glyph unicode="&#xf4;" horiz-adv-x="1054" d="M80 375q0 141 45 260t121 204t172 133t198 48q162 0 259.5 -106.5t97.5 -292.5q0 -141 -46 -260t-121 -204t-172.5 -133.5t-199.5 -48.5q-162 0 -258 106.5t-96 293.5zM238 385q0 -135 54 -207t159 -72q70 0 134 40t115.5 108t82 160t30.5 196q0 135 -54.5 208t-158.5 73 q-68 0 -133.5 -40t-116.5 -108.5t-81.5 -161t-30.5 -196.5zM422 1169l249 289h117l135 -289h-108l-97 189h-8l-170 -189h-118z" />
<glyph unicode="&#xf5;" horiz-adv-x="1054" d="M80 375q0 141 45 260t121 204t172 133t198 48q162 0 259.5 -106.5t97.5 -292.5q0 -141 -46 -260t-121 -204t-172.5 -133.5t-199.5 -48.5q-162 0 -258 106.5t-96 293.5zM238 385q0 -135 54 -207t159 -72q70 0 134 40t115.5 108t82 160t30.5 196q0 135 -54.5 208t-158.5 73 q-68 0 -133.5 -40t-116.5 -108.5t-81.5 -161t-30.5 -196.5zM403 1188q27 92 77 150.5t116 58.5q43 0 71.5 -17.5t51 -37t44 -37t54.5 -17.5q27 0 49 29t43 76h90q-27 -92 -77 -150.5t-115 -58.5q-45 0 -73 17.5t-50.5 36.5t-45 36.5t-55.5 17.5q-25 0 -47 -28.5t-43 -75.5 h-90z" />
<glyph unicode="&#xf6;" horiz-adv-x="1054" d="M80 375q0 141 45 260t121 204t172 133t198 48q162 0 259.5 -106.5t97.5 -292.5q0 -141 -46 -260t-121 -204t-172.5 -133.5t-199.5 -48.5q-162 0 -258 106.5t-96 293.5zM238 385q0 -135 54 -207t159 -72q70 0 134 40t115.5 108t82 160t30.5 196q0 135 -54.5 208t-158.5 73 q-68 0 -133.5 -40t-116.5 -108.5t-81.5 -161t-30.5 -196.5zM436 1288q0 47 30.5 80t73.5 33q37 0 60.5 -22.5t23.5 -63.5q0 -47 -31.5 -78t-74.5 -31q-35 0 -58.5 21.5t-23.5 60.5zM776 1288q0 47 30.5 80t73.5 33q37 0 59.5 -22.5t22.5 -63.5q0 -47 -30.5 -78t-73.5 -31 q-35 0 -58.5 21.5t-23.5 60.5z" />
<glyph unicode="&#xf7;" d="M98 618v117h840v-117h-840zM414 303q0 43 29.5 73t74.5 30t75 -30t30 -73q0 -45 -30 -74.5t-75 -29.5t-74.5 29.5t-29.5 74.5zM414 1049q0 43 29.5 72.5t74.5 29.5t75 -29.5t30 -72.5q0 -45 -30 -76t-75 -31t-74.5 31t-29.5 76z" />
<glyph unicode="&#xf8;" horiz-adv-x="1054" d="M0 10l131 135q-51 96 -51 230q0 141 45 260t121 204t172 133t198 48q164 0 261 -109l124 129l62 -57l-137 -141q47 -94 47 -221q0 -141 -46 -260t-121 -205t-172 -133.5t-200 -47.5q-158 0 -254 103l-121 -125zM229 385q0 -74 15 -123l530 545q-57 86 -170 86 q-76 0 -144.5 -43t-119.5 -113.5t-81 -163t-30 -188.5zM281 180q55 -78 165 -78q76 0 144.5 43t121 114t82 162t29.5 187q0 66 -12 115z" />
<glyph unicode="&#xf9;" horiz-adv-x="1081" d="M115 223q0 35 3 65.5t13 71.5l127 635h158l-125 -614q-8 -41 -12.5 -65.5t-4.5 -51.5q0 -76 35 -114.5t113 -38.5q59 0 131 43t164 137l141 704h156l-199 -995h-129l16 152h-8q-82 -72 -167 -124.5t-177 -52.5q-127 0 -181 67t-54 181zM506 1458h153l121 -289h-114z" />
<glyph unicode="&#xfa;" horiz-adv-x="1081" d="M115 223q0 35 3 65.5t13 71.5l127 635h158l-125 -614q-8 -41 -12.5 -65.5t-4.5 -51.5q0 -76 35 -114.5t113 -38.5q59 0 131 43t164 137l141 704h156l-199 -995h-129l16 152h-8q-82 -72 -167 -124.5t-177 -52.5q-127 0 -181 67t-54 181zM524 1169l238 289h168l-279 -289 h-127z" />
<glyph unicode="&#xfb;" horiz-adv-x="1081" d="M115 223q0 35 3 65.5t13 71.5l127 635h158l-125 -614q-8 -41 -12.5 -65.5t-4.5 -51.5q0 -76 35 -114.5t113 -38.5q59 0 131 43t164 137l141 704h156l-199 -995h-129l16 152h-8q-82 -72 -167 -124.5t-177 -52.5q-127 0 -181 67t-54 181zM408 1169l249 289h117l135 -289 h-108l-97 189h-8l-170 -189h-118z" />
<glyph unicode="&#xfc;" horiz-adv-x="1081" d="M115 223q0 35 3 65.5t13 71.5l127 635h158l-125 -614q-8 -41 -12.5 -65.5t-4.5 -51.5q0 -76 35 -114.5t113 -38.5q59 0 131 43t164 137l141 704h156l-199 -995h-129l16 152h-8q-82 -72 -167 -124.5t-177 -52.5q-127 0 -181 67t-54 181zM422 1288q0 47 30.5 80t73.5 33 q37 0 60.5 -22.5t23.5 -63.5q0 -47 -31.5 -78t-74.5 -31q-35 0 -58.5 21.5t-23.5 60.5zM762 1288q0 47 30.5 80t73.5 33q37 0 59.5 -22.5t22.5 -63.5q0 -47 -30.5 -78t-73.5 -31q-35 0 -58.5 21.5t-23.5 60.5z" />
<glyph unicode="&#xfd;" horiz-adv-x="917" d="M-127 -399l51 116q37 -18 74 -18q76 0 142.5 61.5t117.5 165.5l37 72l-170 997h156l77 -559q10 -68 18.5 -146.5t14.5 -150.5h8q35 72 73 149t75 148l287 559h155l-586 -1079q-39 -74 -81.5 -136.5t-93 -108.5t-110 -72.5t-130.5 -26.5q-23 0 -54.5 6t-60.5 23zM428 1169 l238 289h168l-279 -289h-127z" />
<glyph unicode="&#xfe;" horiz-adv-x="1095" d="M-20 -420l374 1878h158l-80 -389l-45 -197h4q74 59 160 103.5t178 44.5q131 0 209 -93t78 -268q0 -143 -45 -268t-120 -217t-172.5 -145.5t-199.5 -53.5q-78 0 -138 40t-101 104h-4l-37 -213l-64 -326h-155zM270 250q41 -78 92.5 -111t110.5 -33q74 0 143.5 44.5t122 118 t84 168.5t31.5 200q0 127 -48 189.5t-134 62.5q-70 0 -153 -43t-154 -119z" />
<glyph unicode="&#xff;" horiz-adv-x="917" d="M-127 -399l51 116q37 -18 74 -18q76 0 142.5 61.5t117.5 165.5l37 72l-170 997h156l77 -559q10 -68 18.5 -146.5t14.5 -150.5h8q35 72 73 149t75 148l287 559h155l-586 -1079q-39 -74 -81.5 -136.5t-93 -108.5t-110 -72.5t-130.5 -26.5q-23 0 -54.5 6t-60.5 23zM326 1288 q0 47 30.5 80t73.5 33q37 0 60.5 -22.5t23.5 -63.5q0 -47 -31.5 -78t-74.5 -31q-35 0 -58.5 21.5t-23.5 60.5zM666 1288q0 47 30.5 80t73.5 33q37 0 59.5 -22.5t22.5 -63.5q0 -47 -30.5 -78t-73.5 -31q-35 0 -58.5 21.5t-23.5 60.5z" />
<glyph unicode="&#x152;" horiz-adv-x="1671" d="M123 524q0 184 49 335t143.5 258.5t229.5 166.5t305 59h872l-28 -133h-543l-88 -436h457l-29 -135h-453l-104 -504h565l-29 -135h-778q-281 0 -425 138t-144 386zM285 535q0 -193 104.5 -298.5t308.5 -105.5h80l217 1083h-145q-131 0 -235.5 -50t-178.5 -139t-112.5 -215 t-38.5 -275z" />
<glyph unicode="&#x153;" horiz-adv-x="1662" d="M80 375q0 141 45 260t118.5 204t169 133t195.5 48q125 0 202 -66.5t105 -191.5q33 61 76 109.5t92.5 81t100.5 50t102 17.5q84 0 143.5 -27.5t96.5 -76t53 -115t16 -142.5q0 -59 -13 -112t-23 -82h-615q-12 -96 3.5 -165t49 -114t81.5 -65.5t106 -20.5q59 0 117.5 26 t105.5 60l59 -104q-59 -43 -141 -75t-180 -32q-119 0 -201 69t-110 204q-70 -129 -178.5 -201t-229.5 -72q-158 0 -252 106.5t-94 293.5zM238 385q0 -135 54 -207t159 -72q68 0 131 40t113 108t81 160t31 196q0 135 -54.5 208t-158.5 73q-66 0 -130.5 -40t-114.5 -108.5 t-80.5 -161t-30.5 -196.5zM961 571h489q12 49 12 103q0 43 -10 83t-32.5 70.5t-59.5 49t-90 18.5q-49 0 -97.5 -22.5t-89.5 -65.5t-72.5 -102.5t-49.5 -133.5z" />
<glyph unicode="&#x178;" horiz-adv-x="944" d="M170 1343h164l92 -387q18 -74 33.5 -143.5t34.5 -146.5h8q47 76 91 147.5t93 144.5l254 385h170l-561 -819l-107 -524h-157l104 524zM389 1546q0 45 31 79t74 34q35 0 58.5 -21.5t23.5 -62.5q0 -43 -31 -77t-74 -34q-35 0 -58.5 21.5t-23.5 60.5zM729 1546q0 45 31 79 t74 34q35 0 57.5 -21.5t22.5 -62.5q0 -43 -30 -77t-73 -34q-35 0 -58.5 21.5t-23.5 60.5z" />
<glyph unicode="&#x2c6;" horiz-adv-x="1058" d="M422 1169l249 289h117l135 -289h-108l-97 189h-8l-170 -189h-118z" />
<glyph unicode="&#x2dc;" horiz-adv-x="1058" d="M403 1188q27 92 77 150.5t116 58.5q43 0 71.5 -17.5t51 -37t44 -37t54.5 -17.5q27 0 49 29t43 76h90q-27 -92 -77 -150.5t-115 -58.5q-45 0 -73 17.5t-50.5 36.5t-45 36.5t-55.5 17.5q-25 0 -47 -28.5t-43 -75.5h-90z" />
<glyph unicode="&#x2000;" horiz-adv-x="896" />
<glyph unicode="&#x2001;" horiz-adv-x="1792" />
<glyph unicode="&#x2002;" horiz-adv-x="896" />
<glyph unicode="&#x2003;" horiz-adv-x="1792" />
<glyph unicode="&#x2004;" horiz-adv-x="597" />
<glyph unicode="&#x2005;" horiz-adv-x="448" />
<glyph unicode="&#x2006;" horiz-adv-x="298" />
<glyph unicode="&#x2007;" horiz-adv-x="298" />
<glyph unicode="&#x2008;" horiz-adv-x="224" />
<glyph unicode="&#x2009;" horiz-adv-x="358" />
<glyph unicode="&#x200a;" horiz-adv-x="99" />
<glyph unicode="&#x2010;" horiz-adv-x="612" d="M72 455l24 120h449l-27 -120h-446z" />
<glyph unicode="&#x2011;" horiz-adv-x="612" d="M72 455l24 120h449l-27 -120h-446z" />
<glyph unicode="&#x2012;" horiz-adv-x="612" d="M72 455l24 120h449l-27 -120h-446z" />
<glyph unicode="&#x2013;" horiz-adv-x="948" d="M72 461l22 110h780l-24 -110h-778z" />
<glyph unicode="&#x2014;" horiz-adv-x="1574" d="M72 461l22 110h1409l-22 -110h-1409z" />
<glyph unicode="&#x2018;" horiz-adv-x="495" d="M225 1028q0 70 20.5 130.5t57.5 109.5t86 86t107 61l32 -78q-92 -47 -142 -114.5t-52 -126.5h10q43 0 71.5 -23.5t28.5 -66.5q0 -47 -30.5 -82t-79.5 -35q-47 0 -78 37t-31 102z" />
<glyph unicode="&#x2019;" horiz-adv-x="495" d="M227 983q94 47 144.5 115.5t52.5 126.5h-10q-45 0 -74 23.5t-29 68.5q0 47 31 82t82 35q47 0 77.5 -37t30.5 -103q0 -72 -20 -131t-57 -108t-87.5 -86t-107.5 -62z" />
<glyph unicode="&#x201a;" horiz-adv-x="495" d="M-17 -225q94 47 144.5 115.5t52.5 126.5h-10q-45 0 -74 23.5t-29 68.5q0 47 31 82t82 35q47 0 77.5 -37t30.5 -103q0 -72 -20 -131t-57 -108t-87.5 -86t-107.5 -62z" />
<glyph unicode="&#x201c;" horiz-adv-x="835" d="M225 1028q0 70 20.5 130.5t57.5 109.5t86 86t107 61l32 -78q-92 -47 -142 -114.5t-52 -126.5h10q43 0 71.5 -23.5t28.5 -66.5q0 -47 -30.5 -82t-79.5 -35q-47 0 -78 37t-31 102zM565 1028q0 70 20.5 130.5t57.5 109.5t86 86t107 61l32 -78q-92 -47 -142 -114.5 t-52 -126.5h10q43 0 71.5 -23.5t28.5 -66.5q0 -47 -30.5 -82t-79.5 -35q-47 0 -78 37t-31 102z" />
<glyph unicode="&#x201d;" horiz-adv-x="835" d="M227 983q94 47 144.5 115.5t52.5 126.5h-10q-45 0 -74 23.5t-29 68.5q0 47 31 82t82 35q47 0 77.5 -37t30.5 -103q0 -72 -20 -131t-57 -108t-87.5 -86t-107.5 -62zM567 983q94 47 144.5 115.5t52.5 126.5h-10q-45 0 -74 23.5t-29 68.5q0 47 31 82t82 35q47 0 77.5 -37 t30.5 -103q0 -72 -20 -131t-57 -108t-87.5 -86t-107.5 -62z" />
<glyph unicode="&#x201e;" horiz-adv-x="589" d="M-17 -225q94 47 144.5 115.5t52.5 126.5h-10q-45 0 -74 23.5t-29 68.5q0 47 31 82t82 35q47 0 77.5 -37t30.5 -103q0 -72 -20 -131t-57 -108t-87.5 -86t-107.5 -62zM321 -225q94 47 144.5 115.5t52.5 126.5h-10q-45 0 -74 23.5t-29 68.5q0 47 31 82t82 35q47 0 77.5 -37 t30.5 -103q0 -72 -20 -131t-57 -108t-87.5 -86t-107.5 -62z" />
<glyph unicode="&#x2022;" horiz-adv-x="604" d="M84 512q0 49 17.5 98t49 87t76.5 62.5t103 24.5q86 0 142 -60t56 -155q0 -51 -17 -100t-49 -87t-77 -61.5t-100 -23.5q-88 0 -144.5 59.5t-56.5 155.5z" />
<glyph unicode="&#x2026;" horiz-adv-x="1966" d="M170 78q0 53 39 98t98 45q45 0 70 -29.5t25 -74.5q0 -53 -38.5 -97.5t-97.5 -44.5q-45 0 -70.5 29t-25.5 74zM844 78q0 53 39 98t98 45q45 0 70 -29.5t25 -74.5q0 -53 -38.5 -97.5t-97.5 -44.5q-45 0 -70.5 29t-25.5 74zM1517 78q0 53 39 98t98 45q45 0 70 -29.5 t25 -74.5q0 -53 -38.5 -97.5t-97.5 -44.5q-45 0 -70.5 29t-25.5 74z" />
<glyph unicode="&#x202f;" horiz-adv-x="358" />
<glyph unicode="&#x2039;" horiz-adv-x="516" d="M82 461l22 127l320 303l57 -60l-291 -319l175 -330l-72 -45z" />
<glyph unicode="&#x203a;" horiz-adv-x="516" d="M47 197l289 319l-174 330l74 45l210 -324l-22 -127l-320 -303z" />
<glyph unicode="&#x205f;" horiz-adv-x="448" />
<glyph unicode="&#x20ac;" d="M41 492l20 81l111 9q4 39 8 74.5t13 70.5h-105l18 82l109 6q35 117 92.5 213t130 165t157.5 106.5t177 37.5q113 0 181.5 -57t111.5 -139l-119 -76q-31 63 -74 103t-114 40q-63 0 -121.5 -28.5t-108 -80.5t-89.5 -124t-66 -158h512l-19 -90h-516q-8 -35 -12 -70.5 t-8 -72.5h430l-21 -92h-413q0 -186 68.5 -286t189.5 -100q72 0 132 34t111 83l78 -96q-76 -72 -162 -112t-188 -40q-180 0 -283.5 132.5t-103.5 384.5h-127z" />
<glyph unicode="&#x2122;" horiz-adv-x="1251" d="M156 1282l22 102h510l-20 -102h-197l-106 -532h-113l106 532h-202zM655 750l127 634h140l47 -235l22 -166h8l82 166l146 235h141l-125 -634h-113l58 286l65 230h-8l-241 -418h-72l-78 418h-8l-23 -230l-59 -286h-109z" />
<glyph unicode="&#x25fc;" horiz-adv-x="993" d="M0 0v993h993v-993h-993z" />
<glyph unicode="&#xfb01;" horiz-adv-x="1062" d="M88 0l174 868h-129l23 117l133 10l33 166q31 152 109.5 237t205.5 85q53 0 96 -13.5t80 -35.5l-55 -113q-23 14 -49.5 24.5t-61.5 10.5q-68 0 -109.5 -51.5t-58.5 -139.5l-35 -170h201l-24 -127h-203l-174 -868h-156zM641 0l199 995h158l-201 -995h-156zM873 1294 q0 51 36 85t83 34q41 0 70.5 -24.5t29.5 -69.5q0 -51 -36 -84t-83 -33q-41 0 -70.5 23.5t-29.5 68.5z" />
<glyph unicode="&#xfb02;" horiz-adv-x="1085" d="M88 0l174 868h-129l23 117l133 10l33 166q31 152 109.5 237t205.5 85q53 0 96 -13.5t80 -35.5l-55 -113q-23 14 -49.5 24.5t-61.5 10.5q-68 0 -109.5 -51.5t-58.5 -139.5l-35 -170h201l-24 -127h-203l-174 -868h-156zM668 104q0 33 12 86l252 1268h158l-256 -1276 q-4 -16 -4 -24v-15q0 -37 35 -37q6 0 12 1.5t20 5.5l3 -121q-20 -8 -43 -12.5t-56 -4.5q-66 0 -99.5 34t-33.5 95z" />
</font>
</defs>
</svg>
