<?xml version="1.0" standalone="no"?>
<!DOCTYPE svg PUBLIC "-//W3C//DTD SVG 1.1//EN" "http://www.w3.org/Graphics/SVG/1.1/DTD/svg11.dtd" >
<svg xmlns="http://www.w3.org/2000/svg">
<metadata></metadata>
<defs>
<font id="antic_slabregular" horiz-adv-x="1228" >
<font-face units-per-em="2048" ascent="1638" descent="-410" />
<missing-glyph horiz-adv-x="612" />
<glyph horiz-adv-x="0" />
<glyph unicode="&#xd;" horiz-adv-x="681" />
<glyph unicode=" "  horiz-adv-x="612" />
<glyph unicode="&#x09;" horiz-adv-x="612" />
<glyph unicode="&#xa0;" horiz-adv-x="612" />
<glyph unicode="!" horiz-adv-x="577" d="M217 71.5q0 28.5 21.5 50t50 21.5t50 -21.5t21.5 -50t-21.5 -50t-50 -21.5t-50 21.5t-21.5 50zM229 264v1159l123 11v-1170h-123z" />
<glyph unicode="&#x22;" horiz-adv-x="733" d="M152 1470l110 3q-20 -117 -20 -238l-78 -6q-2 12 -2 23.5t-2 27.5t-3 36.5t-1 43.5q-4 72 -4 110zM397 1470l111 3q-20 -117 -21 -238l-77 -6q-2 12 -2 23.5t-2.5 27.5t-3.5 36.5t-1 43.5q-4 72 -4 110z" />
<glyph unicode="#" d="M47 469l12 119h250l62 350h-242l12 119h250l60 334h122l-59 -334h291l59 334h123l-59 -334h219l-12 -119h-228l-61 -350h219l-12 -119h-228l-65 -379h-123l65 379h-290l-66 -379h-123l66 379h-242zM432 588h291l61 350h-290z" />
<glyph unicode="$" horiz-adv-x="1193" d="M133 106l43 93q53 -47 158.5 -73t206.5 -26h4v490q-233 66 -295 125q-78 74 -78 199.5t100.5 212.5t272.5 100v207h71v-205q125 -4 265 -29l45 -8l-25 -105q-196 33 -274 33h-11v-436q238 -68 306 -137q80 -84 79.5 -225.5t-109 -228.5t-276.5 -99v-199h-71v197 q-287 12 -412 114zM305 912q0 -83 61.5 -128t178.5 -79v409q-115 -14 -177.5 -66.5t-62.5 -135.5zM616 104q263 29 263 226q0 98 -68 150t-195 89v-465z" />
<glyph unicode="%" horiz-adv-x="1337" d="M164 819q0 100 71.5 173t174.5 73q246 0 245 -246q0 -102 -72.5 -174t-172.5 -72q-246 0 -246 246zM246 0l774 1024h123l-774 -1024h-123zM246 813q0 -76 45 -119t115.5 -43t118.5 49.5t48 125t-46 118.5t-116.5 43t-117.5 -49t-47 -125zM758 236q0 100 71.5 172.5 t174.5 72.5q246 0 245 -245q0 -102 -72.5 -174t-172.5 -72q-246 0 -246 246zM840 229.5q0 -75.5 45 -118.5t115.5 -43t118.5 49t48 124.5t-46 118.5t-116.5 43t-117.5 -49t-47 -124.5z" />
<glyph unicode="&#x26;" horiz-adv-x="1763" d="M145 469q0 207 100.5 323.5t274.5 151.5q-113 176 -112.5 285.5t91.5 207t271 97.5q98 0 159.5 -23.5t98.5 -44t53 -34.5q63 -51 66 -52l-74 -82q-150 123 -295 123q-141 0 -192 -82q-45 -66 -45 -125q0 -139 202.5 -379.5t485.5 -500.5q94 106 147 256q0 25 -24 28h-127 q-2 12 -2 103l430 2q0 -2 2 -51v-51h-144q-53 -207 -192 -369q31 -27 168 -146h168l-2 -106l-223 -2q-59 49 -197 172q-213 -178 -541 -178q-547 0 -547 477zM279 470q0 -167 102 -266.5t343 -99.5t421 146q-362 334 -555 592q-147 -16 -229 -110.5t-82 -261.5z" />
<glyph unicode="'" horiz-adv-x="409" d="M131 1174v28l2 152q0 84 -2 110l111 6q0 -39 -2 -84t-3 -79.5t-3.5 -64.5t-4.5 -64z" />
<glyph unicode="(" horiz-adv-x="708" d="M131 553q0 358 70 582q66 209 143 292q80 88 119 101l18 8l66 -59q-18 -6 -51 -39t-60.5 -71t-59.5 -112.5t-55.5 -166t-40 -231.5t-16.5 -328.5t26.5 -358.5t60.5 -261t80 -157.5t69 -83.5q20 -16 47 -33l-66 -45q-18 8 -26.5 11.5t-50.5 34t-70.5 68.5t-70.5 115 t-66 171q-66 238 -66 563z" />
<glyph unicode=")" horiz-adv-x="819" d="M131 -365q-131 365 4 3q160 92 232 417q47 211 47 467t-29 434.5t-71 271.5t-84 153.5t-70 76.5l-29 19l66 59q25 -6 64.5 -38t73.5 -70.5t74 -116.5t69.5 -176.5t49 -250t19.5 -328.5t-19.5 -324.5t-45 -241.5t-67.5 -171t-71 -115t-71 -68.5t-50 -33.5t-26 -12z" />
<glyph unicode="*" horiz-adv-x="1138" d="M303 1255l29 97q119 -41 237 -97q-6 232 -8 252l98 -2q0 -96 -16 -250l231 88l33 -96q-94 -33 -241 -63l153 -195l-80 -59q-59 78 -139 215q-111 -162 -139 -209l-80 57q14 18 160 197z" />
<glyph unicode="+" horiz-adv-x="1636" d="M299 475v119h451v430h122v-430h451v-119h-451v-475h-122v475h-451z" />
<glyph unicode="," horiz-adv-x="225" d="M27 -207l10 70q31 186 31 225v45l110 -2q0 -113 -57 -342z" />
<glyph unicode="-" d="M299 475v119h619v-119h-619z" />
<glyph unicode="." horiz-adv-x="292" d="M70 59q0 39 19.5 61.5t51.5 22.5q72 0 72 -84q0 -35 -20.5 -55t-51.5 -20q-71 -1 -71 75z" />
<glyph unicode="/" d="M229 -410l652 1944h123l-652 -1944h-123z" />
<glyph unicode="0" horiz-adv-x="1433" d="M174 684q0 342 157.5 533.5t388 191.5t385.5 -179t155 -517t-158 -529.5t-389.5 -191.5t-385 175t-153.5 517zM313 687q0 -288 115 -435.5t286 -147.5t288.5 161t117.5 445.5t-115.5 435t-284.5 150.5t-288 -160.5t-119 -448.5z" />
<glyph unicode="1" horiz-adv-x="999" d="M158 1282l327 74h129v-1356h-129v1255l-325 -73z" />
<glyph unicode="2" horiz-adv-x="1171" d="M184 113q348 338 420 415q256 276 256 473q0 80 -45 154q-27 43 -83 68.5t-129 25.5t-152.5 -22.5t-126.5 -44.5l-48 -23l-51 96q84 45 192.5 77t188.5 32t143.5 -18.5t122.5 -57.5q125 -84 125 -291q0 -150 -79 -280q-41 -72 -80 -127t-111 -129t-115 -116t-129 -121 t-121 -111h580l31 256l100 -11l-31 -358h-835z" />
<glyph unicode="3" horiz-adv-x="1146" d="M178 27l33 106q82 -27 211 -27q205 0 314.5 75t109.5 225q0 131 -76 182q-41 27 -77 43t-99 24q-82 9 -205 9v92q113 0 170 -2q113 20 195 94q35 29 59.5 83t24.5 128t-54.5 132t-175.5 58q-74 0 -156.5 -22.5t-127.5 -44.5l-48 -23l-34 103q63 37 174.5 69.5t201.5 32.5 q158 0 258.5 -76t100.5 -219q0 -231 -244 -336q252 -61 252 -321q0 -213 -145.5 -315.5t-405.5 -102.5q-135 0 -256 33z" />
<glyph unicode="4" horiz-adv-x="1230" d="M174 399l649 957h140v-957h94l2 -112h-96v-187l139 -8v-47l-2 -45l-410 -2q0 80 2 90l107 14q20 2 24 27v158h-614zM311 399h512v752z" />
<glyph unicode="5" horiz-adv-x="972" d="M55 27l33 106q82 -27 211 -27q205 0 314.5 75t109.5 225q0 131 -80 182q-41 27 -79 43t-105 24q-84 8 -213 9h-23l41 692h586l27 -295l-103 -17l-24 199h-357l-28 -487q283 0 393 -88q43 -37 73.5 -101.5t30.5 -154.5q0 -213 -145.5 -315.5t-405.5 -102.5q-135 0 -256 33 z" />
<glyph unicode="6" horiz-adv-x="1230" d="M143 383q0 119 39 235.5t96.5 205.5t139.5 175t149.5 141.5t149.5 108.5q106 70 178 107l55 -99q-2 -2 -39 -22.5t-75.5 -44t-98 -66.5t-114.5 -88q-123 -104 -213 -239q172 -4 247 -15q148 -22 238 -113t90 -269.5t-122 -293t-309 -114.5t-299 94t-112 297zM282.5 388.5 q0.5 -152.5 80 -218.5t198.5 -66t202 85t83 208t-59.5 190.5t-140.5 80t-298 16.5q-66 -143 -65.5 -295.5z" />
<glyph unicode="7" horiz-adv-x="1155" d="M160 1061l24 295h760l29 -113l-516 -1243h-135l516 1243h-553l-25 -199z" />
<glyph unicode="8" horiz-adv-x="1255" d="M176 354q0 154 58.5 247t173.5 181q-154 84 -154 279q0 162 106.5 232.5t270.5 70.5q381 0 381 -303q0 -184 -158 -309q111 -47 173.5 -138.5t62.5 -259.5q0 -84 -36 -151.5t-82 -109.5t-135 -71.5t-206 -29.5t-205 29.5t-134 71.5t-75 95q-41 84 -41 166zM309 354 q0 -72 31 -123t68.5 -75.5t91.5 -36.5q70 -18 152.5 -18.5t154.5 30.5t100 78q49 80 49 151.5t-22.5 130t-52 92t-84 62.5t-95 41t-109.5 30.5t-104 31.5q-180 -152 -180 -394zM387 1065.5q0 -53.5 17.5 -93.5t38 -63.5t66.5 -45t73.5 -30t91 -24.5t90.5 -25q72 72 90 181 q18 51 18 91t-2 60q-37 139 -239 139q-78 0 -132.5 -22.5t-76.5 -56.5q-35 -57 -35 -110.5z" />
<glyph unicode="9" horiz-adv-x="1230" d="M143 948q0 178 122 293t309.5 115t299 -94.5t111.5 -296.5q0 -119 -39 -236t-96 -206t-139 -175t-149.5 -141t-147.5 -109q-109 -70 -181 -106l-57 98q25 0 138.5 79t159.5 117t87 76q94 94 156 189q-162 0 -246 14q-147 23 -237.5 114t-90.5 269zM283 950 q0 -123 59 -191.5t154 -80.5q73 -14 284 -14q66 141 66 293.5t-80 219t-200 66.5t-201.5 -85t-81.5 -208z" />
<glyph unicode=":" horiz-adv-x="512" d="M162 59q0 39 19.5 61.5t51.5 22.5q72 0 72 -84q0 -35 -20.5 -55t-51.5 -20q-71 -1 -71 75zM162 885q0 39 19.5 61.5t51.5 22.5q72 0 72 -84q0 -35 -20.5 -55.5t-51.5 -20.5q-71 0 -71 76z" />
<glyph unicode=";" horiz-adv-x="475" d="M139 -209l4 25q6 27 13.5 65.5t19.5 105t12 144.5h72q0 -78 -16 -168q-8 -43 -15.5 -82t-11.5 -65l-6 -25h-72zM162 885q0 39 19.5 61.5t51.5 22.5q72 0 72 -84q0 -35 -20.5 -55.5t-51.5 -20.5q-71 0 -71 76z" />
<glyph unicode="&#x3c;" horiz-adv-x="1165" d="M205 614l721 410l6 -106l-561 -306q188 -98 561 -299l-6 -108z" />
<glyph unicode="=" horiz-adv-x="1513" d="M299 211v119h930v-119h-930zM299 666v118h930v-118h-930z" />
<glyph unicode="&#x3e;" horiz-adv-x="1165" d="M205 313q373 201 559 299l-559 306l6 106l721 -410l-721 -409z" />
<glyph unicode="?" horiz-adv-x="1024" d="M119 1307q16 14 47 35.5t127 56.5t192 35q162 0 261.5 -86t101.5 -218q0 -88 -59.5 -169.5t-210.5 -233.5q-199 -195 -199 -465h-92q0 307 169 484.5t214 244t44 145t-63 134.5q-66 57 -178 57q-68 0 -144.5 -23.5t-119.5 -50.5l-43 -26zM260 12q0 41 21.5 64.5 t56.5 23.5q78 0 78 -88q0 -37 -21.5 -59.5t-56.5 -22.5q-78 0 -78 82z" />
<glyph unicode="@" horiz-adv-x="2191" d="M174 506.5q0 404.5 265.5 681t658.5 276.5q379 0 631 -223q123 -109 193.5 -288t70.5 -371.5t-44 -316.5t-114 -195q-139 -150 -299 -150q-80 0 -133 42t-62 116q-180 -86 -358 -86q-272 0 -289 215q-2 14 -2 29q0 172 207 229q115 29 442 65v158q0 223 -233 223 q-123 -2 -279 -51l-8 -176l-100 -10v237l-4 11l20 8q160 70 244 84t123 15t74.5 -1t93 -18.5t99.5 -46t73 -89t31 -141.5v-637q5 -63 77 -63q104 0 206 130t102 353t-61.5 385t-168.5 258q-213 186 -542.5 186.5t-555 -249.5t-225.5 -619q0 -209 60.5 -366.5t169.5 -249.5 q211 -182 548 -183q152 0 297 66l60 -102q-145 -82 -371 -82q-481 0 -723 315q-174 227 -174 631.5zM817 225q6 -74 63.5 -106.5t139.5 -32.5q156 0 321 70v293q-307 -10 -397 -41q-70 -18 -98.5 -66.5t-28.5 -77v-39.5z" />
<glyph unicode="A" horiz-adv-x="1456" d="M41 0v113h135l477 1321h125l494 -1321h141v-113h-414v113h125l-94 266h-631l-92 -266h148v-113h-414zM434 481h559l-284 797z" />
<glyph unicode="B" horiz-adv-x="1120" d="M102 0v113h134v1208h-134v113h441q442 0 442 -347q0 -145 -111 -313q195 -80 195 -350q0 -242 -122 -333t-374 -91h-471zM375 113h188q94 0 153.5 10t112.5 41q100 55 101 252q0 156 -79 221t-237 65h-239v-589zM375 815h250q76 0 131 -8q90 141 90 268q0 246 -314 246 h-157v-506z" />
<glyph unicode="C" horiz-adv-x="1150" d="M82 655q0 362 166 566q174 213 475 213q92 0 199.5 -17.5t152.5 -34.5l25 -295l-101 -14l-28 221q-131 29 -248 29q-231 0 -366.5 -172t-135.5 -496q0 -139 29 -243.5t70.5 -161.5t103.5 -90q98 -55 229 -56q203 0 406 46l24 -107q-35 -12 -185 -31.5t-244.5 -19.5 t-164 13t-147.5 56t-132 114t-91 194t-37 286z" />
<glyph unicode="D" horiz-adv-x="1288" d="M102 0v113h125v1208h-125v113h494q276 0 443 -161t167 -523q0 -358 -116 -537q-102 -156 -320 -197q-96 -16 -225 -16h-443zM367 113h168q272 0 374 100q109 104 140 283q18 104 18 243q0 307 -134 444.5t-347 137.5h-219v-1208z" />
<glyph unicode="E" horiz-adv-x="1107" d="M102 0v113h125v1208h-125v113h871l-2 -13l26 -282l-102 -17l-25 199h-503v-549h446v129h113v-352h-113v110h-446v-546h559l30 256l101 -11l-31 -358h-924z" />
<glyph unicode="F" horiz-adv-x="1048" d="M102 0v113h125v1208h-125v113h871l-2 -13l26 -282l-102 -17l-25 199h-503v-549h446v129h113v-352h-113v110h-446v-546h149v-113h-414z" />
<glyph unicode="G" horiz-adv-x="1257" d="M82 655q0 362 166 566q174 213 475 213q92 0 199.5 -17.5t152.5 -34.5l25 -295l-101 -14l-28 221q-131 29 -248 29q-231 0 -366.5 -172t-135.5 -496q0 -139 29 -243.5t70.5 -161.5t103.5 -90q98 -55 231 -56h5q131 0 303 27l6 410h-176v112h370v-112h-80v-498 q-35 -12 -185 -31.5t-244.5 -19.5t-164 13t-147.5 56t-132 114t-91 194t-37 286z" />
<glyph unicode="H" horiz-adv-x="1402" d="M82 0v113h133v1208h-133v113h414v-113h-152v-549h698v549h-139v113h393v-113h-125v-1208h146v-113h-414v113h139v536h-698v-536h152v-113h-414z" />
<glyph unicode="I" horiz-adv-x="618" d="M102 0v113h136v1208h-136v113h414v-113h-139v-1208h139v-113h-414z" />
<glyph unicode="J" horiz-adv-x="481" d="M-61 -428q86 82 155 196q66 112 66 225v7v1321h-154v113h414v-113h-121v-1321v-10q0 -241 -295 -498z" />
<glyph unicode="K" horiz-adv-x="1232" d="M102 0v113h134v1208h-134v113h414v-113h-141v-1208h141v-113h-414zM375 750l411 571h-110v113h397v-113h-131l-416 -561l510 -647h156v-113h-66l-157 -2z" />
<glyph unicode="L" horiz-adv-x="1058" d="M102 0v113h127v1208h-127v113h414v-113h-147v-1208h520l31 256l100 -11l-23 -245h2l-2 -4l-8 -109l-20 2v-2h-867z" />
<glyph unicode="M" horiz-adv-x="1796" d="M94 0v113h117v1208h-117v113h256l527 -1049l526 1049h270v-113h-131v-1208h154v-113h-414v113h131v1083l-467 -928h-139l-467 928v-1083h168v-113h-414z" />
<glyph unicode="N" horiz-adv-x="1533" d="M94 0v113h131v1208h-131v113h281l815 -1250l-8 1137h-133v113h391v-113h-129v-1321h-150l-817 1249l8 -1136h156v-113h-414z" />
<glyph unicode="O" horiz-adv-x="1372" d="M82 713q0 334 173 531.5t431 197.5q604 0 604 -729q0 -332 -172 -526.5t-432 -194.5q-604 0 -604 721zM221 717q0 -602 465 -602q201 0 333 159.5t132 442.5q0 602 -465 602q-201 0 -333 -160.5t-132 -441.5z" />
<glyph unicode="P" horiz-adv-x="1110" d="M106 0v113h130v1208h-130v113h426q252 0 374 -86t122 -325t-126 -352.5t-370 -113.5h-157v-444h145v-113h-414zM375 670h147q184 0 275.5 80.5t91.5 264t-90.5 245t-276.5 61.5h-147v-651z" />
<glyph unicode="Q" horiz-adv-x="1372" d="M82 713q0 334 173 531.5t431 197.5q604 0 604 -729q0 -313 -154.5 -506t-394.5 -213q57 -203 324 -391l-121 -13q-102 70 -200.5 178.5t-133.5 227.5q-528 41 -528 717zM221 717q0 -602 465 -602q201 0 333 159.5t132 442.5q0 602 -465 602q-201 0 -333 -160.5 t-132 -441.5z" />
<glyph unicode="R" horiz-adv-x="1294" d="M102 0v113h125v1208h-125v113h494q211 0 325.5 -92.5t114.5 -274.5q0 -121 -85 -251t-167 -177l324 -526h145v-113h-225l-364 588h-297v-475h149v-113h-414zM367 700h338q192 175 192 353q0 133 -79.5 200.5t-231.5 67.5h-219v-621z" />
<glyph unicode="S" horiz-adv-x="1079" d="M51 123l2 217l101 10l4 -155q155 -74 329 -74q227 0 338 115q64 67 64 158q0 88 -44 146t-113.5 90t-154.5 55.5t-170 50t-155 63.5t-114 104.5t-44 161.5q0 164 123 268.5t325.5 104.5t381.5 -41v-2h6l22 -256l-100 -17l-23 172q-115 20 -253 20q-1 0 -2 1 q-136 -1 -238 -61t-102.5 -170.5t81.5 -168t199 -87t233.5 -66.5t198.5 -127t82 -238q0 -199 -147.5 -299t-366.5 -100q-276 0 -463 125z" />
<glyph unicode="T" horiz-adv-x="1067" d="M41 1139l25 295h933l27 -295l-102 -17l-25 189h-305v-1198h149v-113h-411v113h133v1198h-301l-23 -189z" />
<glyph unicode="U" horiz-adv-x="1490" d="M102 1321v113h414v-113h-141v-705q0 -317 125 -421q59 -51 120.5 -71t143.5 -20q166 0 271.5 123t105.5 389v705h-135v113h393v-113h-129v-707q0 -322 -141.5 -472t-364.5 -150q-113 0 -198 23.5t-165 86.5q-166 129 -165 512v707h-134z" />
<glyph unicode="V" horiz-adv-x="1452" d="M41 1321v113h414v-113h-142l426 -1165l394 1165h-123v113h401v-113h-147l-467 -1321h-135l-486 1321h-135z" />
<glyph unicode="W" horiz-adv-x="1984" d="M41 1321v113h414v-113h-154l285 -1114l338 1227h114l320 -1231l307 1118h-123v113h402v-113h-148l-385 -1321h-125l-309 1221l-338 -1221h-127l-340 1321h-131z" />
<glyph unicode="X" horiz-adv-x="1304" d="M41 0v113h137l389 651l-352 557h-133v113h414v-113h-123l284 -473l271 473h-123v113h401v-113h-137l-348 -578l397 -630h146v-113h-443v113h142l-332 546l-314 -546h146v-113h-422z" />
<glyph unicode="Y" horiz-adv-x="1396" d="M41 1321v113h414v-113h-129l385 -723l366 723h-125v113h402v-113h-137l-441 -838v-370h148v-113h-410v113h133v370l-467 838h-139z" />
<glyph unicode="Z" horiz-adv-x="1181" d="M51 113l805 1208h-651l-25 -199l-102 17l26 295h891l21 -113l-805 -1208h788l31 256l100 -11l-30 -358h-1028z" />
<glyph unicode="[" horiz-adv-x="880" d="M219 -410v1946h133v-2h262v-119h-262v-1708h262v-119h-331v2h-64z" />
<glyph unicode="\" d="M219 1534h143l652 -1944h-144z" />
<glyph unicode="]" horiz-adv-x="880" d="M219 -293h262v1708h-262v119h262v2h133v-1946h-63v-2h-332v119z" />
<glyph unicode="^" horiz-adv-x="1146" d="M279 625q23 29 137 162t137 161q23 -29 139 -161.5t139 -161.5l-65 -11q-16 23 -102 127.5t-111 137.5q-20 -27 -70 -88q-115 -139 -139 -177z" />
<glyph unicode="_" horiz-adv-x="1024" d="M162 0v119h725v-119h-725z" />
<glyph unicode="`" horiz-adv-x="612" d="M145 1522l123 14l213 -301l-94 -16z" />
<glyph unicode="a" horiz-adv-x="1103" d="M82 236q0 172 207 229q115 29 442 65v158q0 223 -233 223q-168 -2 -357 -77l-35 88l21 8q160 70 244 84q85 14 123 15h25q25 0 49 -1q36 -2 93.5 -18.5t99.5 -46t72.5 -89t30.5 -141.5v-631h158v-102h-270l-21 78q-184 -86 -358 -86q-272 0 -289 215q-2 14 -2 29z M207 225q6 -74 63.5 -106.5t139.5 -32.5q156 0 321 70v293q-307 -10 -397 -41q-70 -18 -98.5 -66.5t-28.5 -77v-39.5z" />
<glyph unicode="b" horiz-adv-x="1146" d="M102 1434v102h271v-594q123 100 274 100q139 0 262 -86q66 -47 106 -147t40 -244q0 -272 -135 -409q-154 -156 -390 -156q-88 0 -175 14.5t-115 32.5v1387h-138zM373 115q59 -14 129 -15q203 0 311.5 119t108.5 336q0 252 -148 330q-71 39 -170 39h-3q-101 0 -228 -54 v-755z" />
<glyph unicode="c" horiz-adv-x="978" d="M92 471q0 268 137 406q153 157 384 157h3q74 0 157 -19.5t128 -60.5v-268l-100 -14l-10 215q-85 26 -177 26q-174 0 -281.5 -115.5t-107.5 -324.5q0 -362 338 -362q131 0 219 21.5t97 27.5l28 -97q-47 -31 -155.5 -51t-196.5 -20t-159.5 18.5t-144.5 65.5t-116 148.5 t-43 246.5z" />
<glyph unicode="d" horiz-adv-x="1185" d="M92 471q0 268 137 410q144 151 330 151h2q115 0 234 -59v461h-138v102h271v-1434h157v-102h-270l-16 66q-117 -74 -268.5 -74t-278.5 84q-72 47 -116 148.5t-44 246.5zM225 473q0 -111 32 -187.5t85 -113.5q92 -61 215 -61t238 55v719q-91 28 -173 28h-6 q-176 0 -283.5 -115.5t-107.5 -324.5z" />
<glyph unicode="e" horiz-adv-x="1036" d="M92 469q0 270 139 414q145 150 337 150l1 -1q193 0 294.5 -106.5t101.5 -298.5q0 -41 -7 -88h-731q-6 -43 -6 -80q0 -182 104.5 -265t243.5 -83q90 0 185.5 17t126.5 32l26 -97q-47 -31 -154.5 -51t-196.5 -20t-159.5 18.5t-144.5 65.5t-117 147.5t-43 245.5zM242 618 h600v23q0 127 -76 195.5t-176 68.5q-137 0 -227.5 -83t-120.5 -204z" />
<glyph unicode="f" horiz-adv-x="737" d="M82 0v102h127v803h-105l17 99l88 18v250q0 141 92 203.5t194.5 62.5t159.5 -22l-6 -97q-49 6 -85 6t-69.5 -7t-70.5 -25q-82 -45 -82 -168v-201h248v-119h-248v-803h174v-102h-434z" />
<glyph unicode="g" horiz-adv-x="1148" d="M84 -213q0 184 219 324q-86 61 -86 146t74 138q-152 74 -152 299q0 158 119 248t303 90q59 0 121 -10l385 10l-4 -78h-223q113 -84 113 -250q0 -169 -113 -262q-113 -92 -291 -92q-115 0 -191 21q-39 -37 -39 -94.5t71 -89t182.5 -47t162.5 -27t119 -36t109 -57.5 q96 -80 96 -213q0 -92 -43 -157.5t-119 -100.5q-139 -61 -332 -61q-256 0 -368.5 88t-112.5 211zM217 -199q0 -84 82 -139t250 -55q377 0 377 200q0 100 -90 144q-78 39 -172 57q-201 29 -289 64q-158 -130 -158 -271zM272 691q0 -116 60.5 -174t193.5 -58t210 66.5 t77 181.5q0 217 -258 217q-127 0 -205 -58.5t-78 -174.5z" />
<glyph unicode="h" horiz-adv-x="1286" d="M121 1434v102h270v-639q195 134 363 134q63 0 123 -19q49 -14 84.5 -42t62.5 -83.5t27 -132.5v-652h155v-102h-413v102h125v598q0 72 -30 117t-77 60q-66 23 -111 23q-8 0 -16 -1q-133 -4 -293 -94v-703h156v-102h-414v102h125v1332h-137z" />
<glyph unicode="i" horiz-adv-x="647" d="M121 922v102h270v-922h154v-102h-414v102h127v820h-137zM236 1392q0 42 23.5 67.5t64.5 25.5t66.5 -25.5t25.5 -69.5t-27 -68t-67.5 -24t-63 26t-22.5 68z" />
<glyph unicode="j" horiz-adv-x="583" d="M102 -428q225 215 224 428v922h-138v102h271v-1024v-10q0 -82 -30 -163t-73 -138q-88 -119 -161 -174l-31 -23zM301 1392q0 42 24.5 67.5t65.5 25.5t65.5 -25.5t24.5 -69.5t-25.5 -68t-66.5 -24t-64.5 26t-23.5 68z" />
<glyph unicode="k" horiz-adv-x="1191" d="M123 1434v102h270v-991l324 377h-84v102h430v-102h-193l-344 -377l389 -443h195v-102h-260l-457 545v-443h154v-102h-414v102h127v1332h-137z" />
<glyph unicode="l" horiz-adv-x="628" d="M123 1434v102h270v-1434h154v-102h-414v102h127v1332h-137z" />
<glyph unicode="m" horiz-adv-x="1861" d="M102 922v102h271v-102h-2v-7q170 106 311 115q195 0 264 -110q178 102 336 110q143 0 217 -59q35 -27 60.5 -83.5t25.5 -133.5v-652h152v-102h-414v102h129v600q0 201 -219 201q-119 -2 -252 -74q6 -35 6 -75v-652h154v-102h-414v102h127v603q0 198 -219 198h-2 q-117 -2 -262 -78v-723h155v-102h-413v102h125v820h-136z" />
<glyph unicode="n" horiz-adv-x="1290" d="M102 922v102h271v-115q168 115 321 121q150 0 228 -59q35 -27 62.5 -83.5t27.5 -133.5v-652h157v-102h-413v102h123v600q0 199 -234 199q-127 -4 -272 -84v-715h153v-102h-413v102h127v820h-138z" />
<glyph unicode="o" horiz-adv-x="1157" d="M92 490.5q0 252.5 140.5 397t353.5 144.5t346 -123t133 -375.5t-140.5 -397t-354.5 -144.5t-346 123t-132 375.5zM225 502.5q0 -189.5 97.5 -290.5t251 -101t256 109.5t102.5 299t-98.5 291.5t-251 102t-255 -110.5t-102.5 -300z" />
<glyph unicode="p" horiz-adv-x="1167" d="M123 922v102h270v-76q129 94 275 94q139 0 262 -86q66 -47 105.5 -147t39.5 -244q0 -272 -135 -409q-154 -156 -397 -156q-72 0 -150 10v-420h174v-102h-434v102h127v1332h-137zM393 115q59 -14 129 -15q203 0 311.5 119t108.5 336q0 252 -147 330q-71 39 -164 39h-3 q-94 -1 -235 -60v-749z" />
<glyph unicode="q" horiz-adv-x="1204" d="M92 471q0 268 137 410q144 151 330 151h2q115 0 234 -59v41l133 10v-1434h174v-102h-434v102h127v473q-113 -71 -263 -71h-4q-150 0 -276 84q-72 47 -116 148.5t-44 246.5zM225 473q0 -111 32 -187.5t85 -113.5q92 -61 215 -61t238 55v719q-91 28 -173 28h-6 q-176 0 -283.5 -115.5t-107.5 -324.5z" />
<glyph unicode="r" horiz-adv-x="909" d="M100 922v102h271v-248q162 238 317 242h25l114 -14l-53 -123q-39 18 -100 18q-147 -2 -303 -213v-584h170v-102h-430v102h127v820h-138z" />
<glyph unicode="s" horiz-adv-x="862" d="M82 80v235l98 15l10 -197q86 -27 138.5 -27t68.5 3q106 2 178 45t72 120.5t-56 120.5t-136 65.5t-160 49.5t-136.5 84t-56.5 149q0 131 100.5 210t254.5 79q115 0 231 -41l37 -14v-236l-100 -14l-9 174q-82 12 -137 12q-113 0 -178 -44t-65 -112.5t56 -107.5t136 -61.5 t160 -50t136 -90t56 -162.5q0 -135 -101 -214t-287.5 -79t-309.5 88z" />
<glyph unicode="t" horiz-adv-x="716" d="M82 905l16 99l90 18l17 197l114 10v-205h248v-119h-248v-602q1 -203 230 -203l80 4l6 -81q-2 0 -29 -7q-61 -14 -137 -14q-70 4 -127 23.5t-106.5 82t-49.5 160.5v637h-104z" />
<glyph unicode="u" horiz-adv-x="1329" d="M123 922v102h276v-713q0 -72 31 -118t78 -60q65 -21 108 -21q9 0 17 1q123 2 285 88v721h-144v102h277v-922h157v-102h-270l-20 119q-186 -125 -353 -125q-70 0 -164 35q-61 23 -98 85t-37 156v652h-143z" />
<glyph unicode="v" horiz-adv-x="1261" d="M82 922v102h432v-102h-143l260 -764l284 764h-114v102h377v-102h-121l-371 -922h-123l-342 922h-139z" />
<glyph unicode="w" horiz-adv-x="1845" d="M82 922v102h430v-102h-137l227 -756l268 848l131 10l226 -858l264 756h-139v102h409v-102h-119l-350 -922h-123l-239 813l-277 -813h-123l-307 922h-141z" />
<glyph unicode="x" horiz-adv-x="1191" d="M82 0v102h133l291 445l-250 375h-133v102h428v-102h-135l196 -312l260 412h5v2h194v-102h-129l-268 -410l280 -410h154v-102h-440v102h127l-226 349l-288 -451h-199z" />
<glyph unicode="y" horiz-adv-x="1337" d="M82 922v102h432v-102h-141l270 -826l348 826h-112v102h376v-102h-122l-408 -922l-68 -408h172v-102h-432v102h127l64 408h-35l-332 922h-139z" />
<glyph unicode="z" horiz-adv-x="1024" d="M82 119l647 786h-502l-8 -164l-100 -14v297h762l18 -119l-639 -786h571l9 196l100 15v-316l2 -14h-842z" />
<glyph unicode="{" horiz-adv-x="927" d="M125 453v116q238 0 237 205v481q0 90 35 152q72 127 285 127q20 0 41 -2v-117h-16q-88 0 -155 -44t-67 -161v-430q0 -188 -116 -270q117 -78 116 -268v-430q0 -119 66.5 -162t155.5 -43h16v-117q-20 -2 -51 -2t-77 7t-104.5 33t-93.5 87t-35 152v430q0 248 -223 256h-14z " />
<glyph unicode="|" horiz-adv-x="581" d="M229 -410v1944h123v-1944h-123z" />
<glyph unicode="}" horiz-adv-x="927" d="M125 -393h16q88 0 154.5 43t66.5 162v430q0 190 117 268q-117 82 -117 270v430q0 117 -66.5 161t-154.5 44h-16v117q20 2 50 2t76 -7t105.5 -33t94 -87t34.5 -152v-481q0 -205 238 -205v-116h-14q-223 -8 -224 -256v-430q0 -90 -34 -152q-72 -127 -285 -127q-20 0 -41 2 v117z" />
<glyph unicode="~" horiz-adv-x="1204" d="M250 645q26 133 180 133q70 0 208 -33.5t191.5 -33.5t72 18.5t26.5 61.5l71 -15q-18 -80 -53 -111.5t-89 -31.5t-206 39q-135 31 -209 30q-109 0 -123 -71z" />
<glyph unicode="&#xa1;" horiz-adv-x="577" d="M213 952.5q0 28.5 21.5 50t50 21.5t50 -21.5t21.5 -50t-21.5 -50t-50 -21.5t-50 21.5t-21.5 50zM225 -399v1159h123v-1170z" />
<glyph unicode="&#xa2;" horiz-adv-x="980" d="M92 471q0 258 125 394t313 163v201h62v-195h61t127 -20.5t121 -59.5v-247l-100 -15l-10 195q-85 26 -177 26h-22v-802q119 4 197.5 27.5t87.5 29.5l32 -111q-102 -55 -317 -63v-199h-62v197q-168 4 -288 90q-70 49 -110 148.5t-40 240.5zM225 473q0 -344 305 -362v794 q-141 -25 -223 -137.5t-82 -294.5z" />
<glyph unicode="&#xa3;" horiz-adv-x="1028" d="M104 573v68h121q-18 113 -18 203q0 379 321 379q152 0 248 -82l-47 -86q-68 59 -184.5 59t-166.5 -70.5t-50 -203.5t14 -199h340v-68h-324q6 -20 36 -116.5t30 -171.5q0 -135 -86 -176h534l11 -109h-709l-14 109h14q51 2 89 46t38 128t-25.5 161.5t-37.5 128.5h-134z" />
<glyph unicode="&#xa4;" d="M182 571l92 93q-70 98 -69.5 249.5t78.5 255.5l-99 101l84 84l101 -101q106 78 251.5 78t249.5 -71l99 98l86 -86l-101 -101q70 -102 70 -246.5t-78 -248.5l109 -109l-84 -84l-109 109q-109 -80 -252 -80t-248 68l-94 -95zM328 915q0 -127 82 -205.5t202.5 -78.5 t204.5 85t84 212t-82 205.5t-202.5 78.5t-204.5 -85t-84 -212z" />
<glyph unicode="&#xa6;" horiz-adv-x="581" d="M229 410h123v-820h-123v820zM229 819v715h123v-715h-123z" />
<glyph unicode="&#xa7;" horiz-adv-x="1024" d="M184 739h133q4 -158 105 -225q47 -31 103.5 -56.5t111.5 -54t100 -67.5q102 -92 103 -289h-133q0 160 -105 234q-45 33 -100.5 57t-111.5 53t-103 68q-103 87 -103 280zM184 1229h133q4 -156 105 -223q47 -31 103.5 -55.5t111.5 -53.5t100 -70q102 -90 103 -290h-133 q0 160 -105 233q-45 33 -100.5 58.5t-111.5 54t-103 67.5q-103 89 -103 279z" />
<glyph unicode="&#xa8;" horiz-adv-x="1024" d="M223 1251q0 37 21.5 58.5t57.5 21.5t57.5 -21.5t21.5 -60.5t-22.5 -60.5t-57.5 -21.5t-56.5 23.5t-21.5 60.5zM666 1251q0 37 20.5 58.5t54.5 21.5q82 0 82 -82q0 -39 -22.5 -60.5t-58 -21.5t-56 23.5t-20.5 60.5z" />
<glyph unicode="&#xa9;" horiz-adv-x="1705" d="M174 621q0 299 182.5 479t454.5 180t450.5 -167t178.5 -465t-182.5 -478t-455 -180t-450.5 166t-178 465zM236 629q0 -264 162.5 -423t406.5 -159t408.5 165t164.5 429t-162.5 423t-406.5 159t-408.5 -165t-164.5 -429zM442 612q0 199 90 310q96 115 256 114 q53 0 114 -10t81 -18l14 -160l-55 -8l-14 121q-74 16 -135 16q-127 0 -201 -94.5t-74 -270.5q0 -301 236 -301q98 0 221 25l14 -60q-98 -27 -244 -26q-303 0 -303 362z" />
<glyph unicode="&#xaa;" horiz-adv-x="614" d="M147 1100v12q0 59 74 80q37 10 160 25v55q0 82 -84 82q-72 0 -129 -29l-12 33q96 39 141 39q133 0 133 -109v-227h57v-37h-98l-8 29q-66 -31 -129 -31q-98 0 -105 78zM190 1118q1 -6 3 -12q2 -51 64 -51t124 24v107q-121 -6 -143 -15q-47 -14 -48 -53z" />
<glyph unicode="&#xab;" horiz-adv-x="1421" d="M154 530l551 351v-99l-418 -252l418 -251v-99zM678 530l551 351v-99l-418 -252l418 -251v-99z" />
<glyph unicode="&#xac;" d="M205 475v119h864v-283h-123v164h-741z" />
<glyph unicode="&#xad;" d="M299 475v119h619v-119h-619z" />
<glyph unicode="&#xae;" horiz-adv-x="1226" d="M184 1012.5q0 199.5 122 320.5t304.5 121t301 -111.5t118.5 -311.5t-122 -319.5t-304 -119.5t-301 110.5t-119 310zM236 1017q0 -179 104 -278.5t264 -99.5t267.5 104.5t107.5 282.5t-105.5 279.5t-265 101.5t-266 -105.5t-106.5 -284.5zM457 778v37h41v404h-41v36h164 q145 0 145 -122q0 -39 -28.5 -82t-55.5 -60l109 -176h49v-37h-76l-121 197h-98v-160h49v-37h-137zM545 1012h110q66 57 66 116q-1 91 -105 91h-71v-207z" />
<glyph unicode="&#xaf;" horiz-adv-x="1024" d="M205 1208v119h614v-119h-614z" />
<glyph unicode="&#xb0;" horiz-adv-x="774" d="M184 1246q0 93 58.5 150.5t145.5 57.5t143.5 -51t56.5 -145.5t-58.5 -150.5t-145.5 -56t-143.5 51t-56.5 144zM246 1247.5q0 -63.5 39 -101.5t99 -38t101 42t41 105.5t-40 102.5t-99 39t-100 -43t-41 -106.5z" />
<glyph unicode="&#xb1;" horiz-adv-x="1705" d="M299 133v119h1024v-119h-1024zM299 885v119h451v430h122v-430h451v-119h-451v-475h-122v475h-451z" />
<glyph unicode="&#xb2;" horiz-adv-x="483" d="M66 1063q14 14 47.5 46t46.5 44l39 39q27 27 36 39t27.5 33.5t25.5 35t15 31.5q16 31 16 65t-21.5 63.5t-74.5 29.5t-123 -33l-20 37q74 39 141 39q150 0 150 -137q0 -100 -129 -228q-12 -14 -57.5 -56t-51.5 -48h217l12 96l37 -4l-12 -135h-313z" />
<glyph unicode="&#xb3;" horiz-adv-x="614" d="M186 1034l13 39q29 -10 75 -10q156 0 156 108q0 68 -57 84q-45 12 -111 13v32h64q45 6 72.5 38t27.5 71q0 72 -84 72q-51 0 -121 -33l-12 37q63 39 128.5 39t102.5 -29t37 -80q0 -84 -88 -123q92 -23 92 -116q0 -154 -202 -154q-51 0 -93 12z" />
<glyph unicode="&#xb4;" horiz-adv-x="614" d="M156 1235l213 301l123 -14l-244 -303z" />
<glyph unicode="&#xb5;" horiz-adv-x="1329" d="M123 922v102h276v-713q0 -72 31 -118t78 -60q78 -25 125 -20q123 2 285 88v721h-144v102h277v-922h157v-102h-270l-20 119q-186 -125 -353 -125q-70 0 -164 35q-61 23 -98 85t-37 156v652h-143zM266 -512v1024h133v-1024h-133z" />
<glyph unicode="&#xb6;" horiz-adv-x="1251" d="M236 1073q0 158 99 259.5t240 101.5h123v-1024h-123v325q-147 0 -243 90t-96 248zM918 0v1434h102v-1434h-102z" />
<glyph unicode="&#xb7;" horiz-adv-x="278" d="M70 782q0 35 18 56.5t47 21.5q68 0 68 -78q0 -31 -19.5 -50t-48.5 -19q-65 -1 -65 69z" />
<glyph unicode="&#xb8;" horiz-adv-x="532" d="M119 -242q154 53 153 148q0 51 -14 94l72 12q16 -43 16 -78q0 -78 -60.5 -138t-146.5 -81z" />
<glyph unicode="&#xb9;" horiz-adv-x="563" d="M178 1468v37l121 29h49v-510h-49v473z" />
<glyph unicode="&#xba;" horiz-adv-x="614" d="M119 1220.5q0 98.5 54 155t137 56.5t134.5 -47.5t51.5 -145.5t-54.5 -155.5t-137.5 -57.5t-134 48t-51 146.5zM170 1226.5q0 -73.5 38 -113.5t97.5 -40t99 43t39.5 117t-37.5 113.5t-97 39.5t-99.5 -43t-40 -116.5z" />
<glyph unicode="&#xbb;" horiz-adv-x="1421" d="M154 180v99l417 251l-417 252v99l551 -351zM678 180v99l418 251l-418 252v99l551 -351z" />
<glyph unicode="&#xbc;" horiz-adv-x="1720" d="M162 1485l223 49h86v-920h-86v852l-221 -49zM526 0l516 1536h97l-514 -1536h-99zM928 279l454 669h99v-669h65l2 -78h-67v-131l96 -7q-2 -61 -2 -63l-285 -2v63l76 11q10 2 16 18v111h-430zM1024 279h358v526z" />
<glyph unicode="&#xbd;" horiz-adv-x="1765" d="M166 1485l223 49h88v-920h-88v852l-221 -51zM526 0l516 1536h97l-514 -1536h-99zM1071 78q258 250 313 313q141 162 142 285q0 59 -39 112.5t-137 53.5q-92 0 -185 -47l-30 -15l-35 66q129 72 247.5 72t194.5 -57.5t76 -188.5q0 -186 -229 -410q-33 -31 -104 -96.5 t-93 -87.5h389l21 172l67 -6l-20 -242h-562z" />
<glyph unicode="&#xbe;" horiz-adv-x="1636" d="M92 637l23 72q55 -18 141 -19q285 0 285 201q0 49 -20.5 84t-47.5 51t-76 27q-59 10 -161 10v63q74 0 112 -2q70 8 131 64q55 47 56 137q0 53 -36 92t-102 39q-111 0 -207 -45l-30 -14l-25 67q117 70 238 70t188.5 -51t67.5 -148q0 -156 -164 -225q170 -39 170 -215 q0 -281 -371 -281q-90 0 -172 23zM526 0l516 1536h97l-514 -1536h-99zM922 281l454 669h99v-669h65l2 -80h-67v-131l98 -4l-2 -66l-289 -2q0 57 2 63l76 11q10 2 16 18v111h-430zM1018 281h358v526z" />
<glyph unicode="&#xbf;" horiz-adv-x="1024" d="M172 -106q0 88 59.5 169.5t210.5 233.5q199 195 199 465h92q0 -307 -169 -484.5t-214 -244t-44 -145t63 -134.5q66 -57 178 -57q68 0 144.5 23.5t119.5 50.5l43 26l47 -80q-16 -14 -47 -35.5t-127 -56.5t-192 -35q-162 0 -261.5 86t-101.5 218zM604 1012q0 37 21.5 59.5 t56.5 22.5q78 0 78 -82q0 -41 -21.5 -64.5t-56.5 -23.5q-78 0 -78 88z" />
<glyph unicode="&#xc0;" horiz-adv-x="1456" d="M41 0v113h135l477 1321h125l494 -1321h141v-113h-414v113h125l-94 266h-631l-92 -266h148v-113h-414zM422 1831l123 14l213 -301l-94 -16zM434 481h559l-284 797z" />
<glyph unicode="&#xc1;" horiz-adv-x="1456" d="M41 0v113h135l477 1321h125l494 -1321h141v-113h-414v113h125l-94 266h-631l-92 -266h148v-113h-414zM434 481h559l-284 797zM666 1544l213 301l122 -14l-243 -303z" />
<glyph unicode="&#xc2;" horiz-adv-x="1456" d="M41 0v113h135l477 1321h125l494 -1321h141v-113h-414v113h125l-94 266h-631l-92 -266h148v-113h-414zM362 1595l343 330q324 -315 339 -330l-67 -59l-275 272l-270 -272zM434 481h559l-284 797z" />
<glyph unicode="&#xc3;" horiz-adv-x="1456" d="M41 0v113h135l477 1321h125l494 -1321h141v-113h-414v113h125l-94 266h-631l-92 -266h148v-113h-414zM350 1548q26 133 180 133q70 0 208.5 -33.5t191.5 -33.5t71.5 18.5t26.5 61.5l72 -15q-18 -80 -53 -111.5t-89.5 -31.5t-205.5 39q-135 31 -209 31q-109 0 -123 -72z M434 481h559l-284 797z" />
<glyph unicode="&#xc4;" horiz-adv-x="1456" d="M41 0v113h135l477 1321h125l494 -1321h141v-113h-414v113h125l-94 266h-631l-92 -266h148v-113h-414zM410 1620q0 37 21.5 58.5t57 21.5t57 -21.5t21.5 -60.5t-22.5 -60.5t-57 -21.5t-56 23.5t-21.5 60.5zM434 481h559l-284 797zM852 1620q0 37 20.5 58.5t55.5 21.5 q82 0 82 -82q0 -39 -22.5 -60.5t-58.5 -21.5t-56.5 23.5t-20.5 60.5z" />
<glyph unicode="&#xc5;" horiz-adv-x="1456" d="M41 0v113h135l477 1321h125l494 -1321h141v-113h-414v113h125l-94 266h-631l-92 -266h148v-113h-414zM434 481h559l-284 797zM539 1689.5q0 75.5 51 124t121 48.5q174 0 174 -164q0 -68 -50.5 -115t-125 -47t-122.5 39t-48 114.5zM610 1694q0 -47 28 -74t72 -27t73.5 31 t29.5 78t-28.5 74.5t-71.5 27.5t-73 -31.5t-30 -78.5z" />
<glyph unicode="&#xc6;" horiz-adv-x="1490" d="M41 -2l2 70l107 14q14 0 22 24l2 3l498 1325h667l27 -295l-102 -17l-25 189h-367v-539h297q20 4 21 25l8 100l94 4v-350q-2 0 -47 -2h-45l-8 100h-320v-526h422l31 246l100 -11l-30 -358h-662v379h-332l-106 -297l160 -10v-37l-2 -35zM438 481h295v822z" />
<glyph unicode="&#xc7;" horiz-adv-x="1150" d="M82 655q0 362 166 566q174 213 475 213q92 0 199.5 -17.5t152.5 -34.5l25 -295l-101 -14l-28 221q-131 29 -248 29q-231 0 -366.5 -172t-135.5 -496q0 -139 29 -243.5t70.5 -161.5t103.5 -90q98 -55 229 -56q203 0 406 46l24 -107q-35 -12 -185 -31.5t-244.5 -19.5 t-164 13t-147.5 56t-132 114t-91 194t-37 286zM553 -242q154 53 154 148q0 51 -15 94l72 12q16 -43 16 -78q0 -78 -60.5 -138t-146.5 -81z" />
<glyph unicode="&#xc8;" horiz-adv-x="1036" d="M41 0v113h125v1208h-125v113h870l-2 -13l27 -282l-102 -17l-25 199h-504v-549h447v129h112v-352h-112v110h-447v-546h559l31 256l100 -11l-30 -358h-924zM276 1829l123 14l213 -301l-94 -16z" />
<glyph unicode="&#xc9;" horiz-adv-x="1036" d="M41 0v113h125v1208h-125v113h870l-2 -13l27 -282l-102 -17l-25 199h-504v-549h447v129h112v-352h-112v110h-447v-546h559l31 256l100 -11l-30 -358h-924zM463 1542l213 301l123 -14l-244 -303z" />
<glyph unicode="&#xca;" horiz-adv-x="1036" d="M41 0v113h125v1208h-125v113h870l-2 -13l27 -282l-102 -17l-25 199h-504v-549h447v129h112v-352h-112v110h-447v-546h559l31 256l100 -11l-30 -358h-924zM201 1593l342 330q324 -315 340 -330l-68 -59l-274 272l-271 -272z" />
<glyph unicode="&#xcb;" horiz-adv-x="1036" d="M41 0v113h125v1208h-125v113h870l-2 -13l27 -282l-102 -17l-25 199h-504v-549h447v129h112v-352h-112v110h-447v-546h559l31 256l100 -11l-30 -358h-924zM252 1620q0 37 21.5 58.5t57.5 21.5t57.5 -21.5t21.5 -60.5t-22.5 -60.5t-57.5 -21.5t-56.5 23.5t-21.5 60.5z M694 1620q0 37 20.5 58.5t55.5 21.5q82 0 82 -82q0 -39 -22.5 -60.5t-58.5 -21.5t-56.5 23.5t-20.5 60.5z" />
<glyph unicode="&#xcc;" horiz-adv-x="546" d="M41 1829l123 14l213 -301l-94 -16zM92 0v113h135v1208h-135v113h414v-113h-139v-1208h139v-113h-414z" />
<glyph unicode="&#xcd;" horiz-adv-x="604" d="M41 0v113h135v1208h-135v113h414v-113h-140v-1208h140v-113h-414zM227 1542l213 301l123 -14l-244 -303z" />
<glyph unicode="&#xce;" horiz-adv-x="765" d="M41 1536l342 330q324 -315 340 -330l-68 -59l-274 272l-270 -272zM178 0v113h135v1208h-135v113h414v-113h-139v-1208h139v-113h-414z" />
<glyph unicode="&#xcf;" horiz-adv-x="681" d="M41 1618q0 37 21.5 58.5t57.5 21.5t57.5 -21.5t21.5 -60.5t-22.5 -60.5t-57.5 -21.5t-56.5 23.5t-21.5 60.5zM143 0v113h136v1208h-136v113h414v-113h-139v-1208h139v-113h-414zM483 1618q0 37 20.5 58.5t55.5 21.5q82 0 82 -82q0 -39 -22.5 -60.5t-58.5 -21.5 t-56.5 23.5t-20.5 60.5z" />
<glyph unicode="&#xd0;" horiz-adv-x="1239" d="M102 0v113h125v1208h-125v113h494q276 0 443 -161t167 -523q0 -358 -116 -537q-102 -156 -320 -197q-96 -16 -225 -16h-443zM102 733v58h568v-58h-568zM367 113h168q272 0 374 100q109 104 140 283q18 104 18 243q0 307 -134 444.5t-347 137.5h-219v-1208z" />
<glyph unicode="&#xd1;" horiz-adv-x="1533" d="M94 0v113h131v1208h-131v113h281l815 -1250l-8 1137h-133v113h391v-113h-129v-1321h-150l-817 1249l8 -1136h156v-113h-414zM385 1546q26 133 180 133q70 0 208 -33.5t191.5 -33.5t72 18.5t26.5 61.5l72 -15q-18 -80 -53 -111.5t-89.5 -31.5t-206.5 39q-135 31 -208 31 q-109 0 -123 -72z" />
<glyph unicode="&#xd2;" horiz-adv-x="1372" d="M82 713q0 334 173 531.5t431 197.5q604 0 604 -729q0 -332 -172 -526.5t-432 -194.5q-604 0 -604 721zM221 717q0 -602 465 -602q201 0 333 159.5t132 442.5q0 602 -465 602q-201 0 -333 -160.5t-132 -441.5zM438 1829l123 14l213 -301l-94 -16z" />
<glyph unicode="&#xd3;" horiz-adv-x="1372" d="M82 713q0 334 173 531.5t431 197.5q604 0 604 -729q0 -332 -172 -526.5t-432 -194.5q-604 0 -604 721zM221 717q0 -602 465 -602q201 0 333 159.5t132 442.5q0 602 -465 602q-201 0 -333 -160.5t-132 -441.5zM688 1542l213 301l123 -14l-244 -303z" />
<glyph unicode="&#xd4;" horiz-adv-x="1372" d="M82 713q0 334 173 531.5t431 197.5q604 0 604 -729q0 -332 -172 -526.5t-432 -194.5q-604 0 -604 721zM221 717q0 -602 465 -602q201 0 333 159.5t132 442.5q0 602 -465 602q-201 0 -333 -160.5t-132 -441.5zM403 1593l342 330q324 -315 340 -330l-67 -59l-275 272 l-270 -272z" />
<glyph unicode="&#xd5;" horiz-adv-x="1372" d="M82 713q0 334 173 531.5t431 197.5q604 0 604 -729q0 -332 -172 -526.5t-432 -194.5q-604 0 -604 721zM221 717q0 -602 465 -602q201 0 333 159.5t132 442.5q0 602 -465 602q-201 0 -333 -160.5t-132 -441.5zM369 1571q26 133 180 133q70 0 208 -34t191 -34t71.5 18.5 t27.5 61.5l71 -14q-18 -80 -53 -111.5t-89 -31.5t-206 38q-135 31 -209 31q-109 0 -123 -72z" />
<glyph unicode="&#xd6;" horiz-adv-x="1372" d="M82 713q0 334 173 531.5t431 197.5q604 0 604 -729q0 -332 -172 -526.5t-432 -194.5q-604 0 -604 721zM221 717q0 -602 465 -602q201 0 333 159.5t132 442.5q0 602 -465 602q-201 0 -333 -160.5t-132 -441.5zM440 1620q0 37 21.5 58.5t57.5 21.5t57.5 -21.5t21.5 -60.5 t-22.5 -60.5t-57.5 -21.5t-56.5 23.5t-21.5 60.5zM883 1620q0 37 20.5 58.5t54.5 21.5q82 0 82 -82q0 -39 -22.5 -60.5t-58 -21.5t-56 23.5t-20.5 60.5z" />
<glyph unicode="&#xd7;" horiz-adv-x="1294" d="M236 41l327 328l-327 327l83 84l328 -327l328 327l84 -84l-328 -327l328 -328l-84 -84l-328 328l-328 -328z" />
<glyph unicode="&#xd8;" horiz-adv-x="1366" d="M82 713q0 334 173 531.5t431 197.5q604 0 604 -729q0 -332 -172 -526.5t-432 -194.5q-604 0 -604 721zM156 47l1044 1387l60 -48l-1045 -1386zM221 717q0 -602 465 -602q201 0 333 159.5t132 442.5q0 602 -465 602q-201 0 -333 -160.5t-132 -441.5z" />
<glyph unicode="&#xd9;" horiz-adv-x="1378" d="M41 1321v113h414v-113h-142v-705q0 -317 125 -421q59 -51 121 -71t143 -20q166 0 271.5 123t105.5 389v705h-135v113h393v-113h-129v-707q0 -322 -141 -472t-365 -150q-113 0 -197.5 23.5t-164.5 86.5q-166 129 -166 512v707h-133zM420 1831l123 14l213 -301l-94 -16z " />
<glyph unicode="&#xda;" horiz-adv-x="1378" d="M41 1321v113h414v-113h-142v-705q0 -317 125 -421q59 -51 121 -71t143 -20q166 0 271.5 123t105.5 389v705h-135v113h393v-113h-129v-707q0 -322 -141 -472t-365 -150q-113 0 -197.5 23.5t-164.5 86.5q-166 129 -166 512v707h-133zM666 1544l213 301l122 -14l-243 -303z " />
<glyph unicode="&#xdb;" horiz-adv-x="1378" d="M41 1321v113h414v-113h-142v-705q0 -317 125 -421q59 -51 121 -71t143 -20q166 0 271.5 123t105.5 389v705h-135v113h393v-113h-129v-707q0 -322 -141 -472t-365 -150q-113 0 -197.5 23.5t-164.5 86.5q-166 129 -166 512v707h-133zM362 1595l343 330q324 -315 339 -330 l-67 -59l-275 272l-270 -272z" />
<glyph unicode="&#xdc;" horiz-adv-x="1378" d="M41 1321v113h414v-113h-142v-705q0 -317 125 -421q59 -51 121 -71t143 -20q166 0 271.5 123t105.5 389v705h-135v113h393v-113h-129v-707q0 -322 -141 -472t-365 -150q-113 0 -197.5 23.5t-164.5 86.5q-166 129 -166 512v707h-133zM395 1620q0 37 21.5 58.5t57.5 21.5 t57.5 -21.5t21.5 -60.5t-22.5 -60.5t-57.5 -21.5t-56.5 23.5t-21.5 60.5zM838 1620q0 37 20.5 58.5t54.5 21.5q82 0 82 -82q0 -39 -22.5 -60.5t-58 -21.5t-56 23.5t-20.5 60.5z" />
<glyph unicode="&#xdd;" horiz-adv-x="1396" d="M41 1321v113h414v-113h-129l385 -723l366 723h-125v113h402v-113h-137l-441 -838v-370h148v-113h-410v113h133v370l-467 838h-139zM635 1542l213 301l123 -14l-244 -303z" />
<glyph unicode="&#xde;" horiz-adv-x="1110" d="M104 -2q0 80 2 90l107 14q14 2 23 19v1188q-8 18 -23 20l-109 12v27l2 66h269v-267h157q252 0 374 -86t122 -324.5t-126 -352t-370 -113.5h-157v-191l141 -8v-47l-2 -45zM375 403h147q184 0 275.5 81t91.5 264.5t-90.5 245t-276.5 61.5h-147v-652z" />
<glyph unicode="&#xdf;" horiz-adv-x="1343" d="M70 -2l2 70l106 14q14 2 19 20v813h-99l13 109h86v233q0 139 85 209t224 70t244 -86q51 -43 83.5 -112.5t32.5 -143.5q0 -119 -80.5 -193.5t-113.5 -122t-33 -114t57.5 -110.5t138 -66.5t162.5 -49t139.5 -89t57.5 -162.5q0 -139 -101.5 -217t-287.5 -78 q-92 0 -184.5 20.5t-137.5 53.5l47 108q27 -23 109 -44t124 -21h48q111 2 180.5 45t69.5 121.5t-57.5 120.5t-138.5 64.5t-162.5 49.5t-139 88t-57.5 143t27.5 130.5t81 106.5t81.5 105q43 51 43 111.5t-47 118.5q-86 109 -194 108q-72 0 -120 -52t-48 -146v-1223h-13z" />
<glyph unicode="&#xe0;" horiz-adv-x="1103" d="M82 236q0 172 207 229q115 29 442 65v158q0 223 -233 223q-168 -2 -357 -77l-35 88l21 8q160 70 244 84t122.5 15t74.5 -1t93.5 -18.5t99.5 -46t72.5 -89t30.5 -141.5v-631h158v-102h-270l-21 78q-184 -86 -358 -86q-272 0 -289 215q-2 14 -2 29zM207 225 q6 -74 63.5 -106.5t139.5 -32.5q156 0 321 70v293q-307 -10 -397 -41q-70 -18 -98.5 -66.5t-28.5 -77v-39.5zM229 1522l123 14l213 -301l-94 -16z" />
<glyph unicode="&#xe1;" horiz-adv-x="1103" d="M82 236q0 172 207 229q115 29 442 65v158q0 223 -233 223q-168 -2 -357 -77l-35 88l21 8q160 70 244 84t122.5 15t74.5 -1t93.5 -18.5t99.5 -46t72.5 -89t30.5 -141.5v-631h158v-102h-270l-21 78q-184 -86 -358 -86q-272 0 -289 215q-2 14 -2 29zM207 225 q6 -74 63.5 -106.5t139.5 -32.5q156 0 321 70v293q-307 -10 -397 -41q-70 -18 -98.5 -66.5t-28.5 -77v-39.5zM455 1235l213 301l123 -14l-244 -303z" />
<glyph unicode="&#xe2;" horiz-adv-x="1103" d="M82 236q0 172 207 229q115 29 442 65v158q0 223 -233 223q-168 -2 -357 -77l-35 88l21 8q160 70 244 84t122.5 15t74.5 -1t93.5 -18.5t99.5 -46t72.5 -89t30.5 -141.5v-631h158v-102h-270l-21 78q-184 -86 -358 -86q-272 0 -289 215q-2 14 -2 29zM168 1229l342 330 q324 -315 340 -330l-68 -60l-274 273l-270 -273zM207 225q6 -74 63.5 -106.5t139.5 -32.5q156 0 321 70v293q-307 -10 -397 -41q-70 -18 -98.5 -66.5t-28.5 -77v-39.5z" />
<glyph unicode="&#xe3;" horiz-adv-x="1103" d="M82 236q0 172 207 229q115 29 442 65v158q0 223 -233 223q-168 -2 -357 -77l-35 88l21 8q160 70 244 84t122.5 15t74.5 -1t93.5 -18.5t99.5 -46t72.5 -89t30.5 -141.5v-631h158v-102h-270l-21 78q-184 -86 -358 -86q-272 0 -289 215q-2 14 -2 29zM115 1208 q26 133 180 133q70 0 208 -33.5t191.5 -33.5t71.5 18.5t27 61.5l71 -15q-18 -80 -53 -111.5t-89 -31.5t-206 39q-135 31 -209 31q-109 0 -123 -72zM207 225q6 -74 63.5 -106.5t139.5 -32.5q156 0 321 70v293q-307 -10 -397 -41q-70 -18 -98.5 -66.5t-28.5 -77v-39.5z" />
<glyph unicode="&#xe4;" horiz-adv-x="1103" d="M82 236q0 172 207 229q115 29 442 65v158q0 223 -233 223q-168 -2 -357 -77l-35 88l21 8q160 70 244 84t122.5 15t74.5 -1t93.5 -18.5t99.5 -46t72.5 -89t30.5 -141.5v-631h158v-102h-270l-21 78q-184 -86 -358 -86q-272 0 -289 215q-2 14 -2 29zM201 1251 q0 37 21.5 58.5t57 21.5t57 -21.5t21.5 -60.5t-22.5 -60.5t-57 -21.5t-56 23.5t-21.5 60.5zM207 225q6 -74 63.5 -106.5t139.5 -32.5q156 0 321 70v293q-307 -10 -397 -41q-70 -18 -98.5 -66.5t-28.5 -77v-39.5zM643 1251q0 37 20.5 58.5t55.5 21.5q82 0 82 -82 q0 -39 -22.5 -60.5t-58.5 -21.5t-56.5 23.5t-20.5 60.5z" />
<glyph unicode="&#xe5;" horiz-adv-x="946" d="M82 236q0 172 207 229q115 29 442 65v158q0 223 -233 223q-168 -2 -357 -77l-35 88l21 8q160 70 244 84t122.5 15t74.5 -1t93.5 -18.5t99.5 -46t72.5 -89t30.5 -141.5v-631h158v-102h-270l-21 78q-184 -86 -358 -86q-272 0 -289 215q-2 14 -2 29zM207 225 q6 -74 63.5 -106.5t139.5 -32.5q156 0 321 70v293q-307 -10 -397 -41q-70 -18 -98.5 -66.5t-28.5 -77v-39.5zM358 1351.5q0 75.5 51.5 124t120.5 48.5q174 0 175 -164q0 -68 -50.5 -115t-125 -47t-123 39t-48.5 114.5zM430 1356q0 -47 27.5 -74t71.5 -27t74 31t30 78 t-29 74.5t-72 27.5t-72.5 -31.5t-29.5 -78.5z" />
<glyph unicode="&#xe6;" horiz-adv-x="1476" d="M82 236q0 172 207 229q51 12 243 41q8 219 125 360q-55 45 -170.5 44t-271.5 -50l-8 -176l-101 -10v248l21 8q160 70 244 84q98 16 149 16q148 0 244 -72q115 74 276.5 74t263 -106.5t101.5 -298.5q0 -41 -6 -88h-731q-2 -23 -2 -68q0 -360 344 -360q90 0 184 19.5 t125 35.5l31 -109q-49 -27 -157 -46t-204 -19q-176 0 -284 74q-172 -74 -332 -74q-272 0 -289 215q-2 14 -2 29zM207 225q6 -74 63.5 -106.5t146.5 -32.5t222 37q-100 115 -107 315q-139 -10 -198 -30q-70 -18 -98.5 -66.5t-28.5 -77v-39.5zM682 614h600q0 242 -176 281 q-37 10 -70 10q-143 0 -234 -84t-120 -207z" />
<glyph unicode="&#xe7;" horiz-adv-x="978" d="M92 471q0 268 137 406q154 158 387 157q74 0 157 -19.5t128 -60.5v-268l-100 -14l-10 215q-85 26 -177 26q-174 0 -281.5 -115.5t-107.5 -324.5q0 -362 338 -362q131 0 219 21.5t97 27.5l28 -97q-47 -31 -155.5 -51t-196.5 -20t-159.5 18.5t-144.5 65.5t-116 148.5 t-43 246.5zM414 -242q154 53 153 148q0 51 -14 94l72 12q16 -43 16 -78q0 -78 -60.5 -138t-146.5 -81z" />
<glyph unicode="&#xe8;" horiz-adv-x="1036" d="M92 469q0 270 139 414q145 150 338 149.5t294.5 -107t101.5 -298.5q0 -41 -7 -88h-731q-6 -43 -6 -80q0 -182 104.5 -265t243.5 -83q90 0 185.5 17t126.5 32l26 -97q-47 -31 -154.5 -51t-196.5 -20t-159.5 18.5t-144.5 65.5t-117 147.5t-43 245.5zM242 618h600v23 q0 127 -76 195.5t-176 68.5q-137 0 -227.5 -83t-120.5 -204zM303 1522l123 14l213 -301l-94 -16z" />
<glyph unicode="&#xe9;" horiz-adv-x="1036" d="M92 469q0 270 139 414q145 150 338 149.5t294.5 -107t101.5 -298.5q0 -41 -7 -88h-731q-6 -43 -6 -80q0 -182 104.5 -265t243.5 -83q90 0 185.5 17t126.5 32l26 -97q-47 -31 -154.5 -51t-196.5 -20t-159.5 18.5t-144.5 65.5t-117 147.5t-43 245.5zM242 618h600v23 q0 127 -76 195.5t-176 68.5q-137 0 -227.5 -83t-120.5 -204zM580 1235l213 301l122 -14l-243 -303z" />
<glyph unicode="&#xea;" horiz-adv-x="1036" d="M92 469q0 270 139 414q145 150 338 149.5t294.5 -107t101.5 -298.5q0 -41 -7 -88h-731q-6 -43 -6 -80q0 -182 104.5 -265t243.5 -83q90 0 185.5 17t126.5 32l26 -97q-47 -31 -154.5 -51t-196.5 -20t-159.5 18.5t-144.5 65.5t-117 147.5t-43 245.5zM242 618h600v23 q0 127 -76 195.5t-176 68.5q-137 0 -227.5 -83t-120.5 -204zM256 1229l342 330q324 -315 340 -330l-68 -60l-274 273l-270 -273z" />
<glyph unicode="&#xeb;" horiz-adv-x="1036" d="M92 469q0 270 139 414q145 150 338 149.5t294.5 -107t101.5 -298.5q0 -41 -7 -88h-731q-6 -43 -6 -80q0 -182 104.5 -265t243.5 -83q90 0 185.5 17t126.5 32l26 -97q-47 -31 -154.5 -51t-196.5 -20t-159.5 18.5t-144.5 65.5t-117 147.5t-43 245.5zM242 618h600v23 q0 127 -76 195.5t-176 68.5q-137 0 -227.5 -83t-120.5 -204zM301 1251q0 37 21.5 58.5t57.5 21.5t57.5 -21.5t21.5 -60.5t-22.5 -60.5t-57.5 -21.5t-56.5 23.5t-21.5 60.5zM743 1251q0 37 20.5 58.5t55.5 21.5q82 0 82 -82q0 -39 -22.5 -60.5t-58.5 -21.5t-56.5 23.5 t-20.5 60.5z" />
<glyph unicode="&#xec;" horiz-adv-x="585" d="M41 1522l123 14l213 -301l-94 -16zM123 936l2 70q111 18 168 18t77.5 -26.5t20.5 -57.5v-858l154 -10v-37l-2 -35l-410 -2q0 59 2 70l107 14q16 2 16 29v798q0 23 -12 23z" />
<glyph unicode="&#xed;" horiz-adv-x="583" d="M123 936l2 70q111 18 168 18t77.5 -26.5t20.5 -57.5v-858l154 -10v-37l-2 -35l-410 -2q0 59 2 70l107 14q16 2 16 29v798q0 23 -12 23zM227 1235l213 301l123 -14l-244 -303z" />
<glyph unicode="&#xee;" horiz-adv-x="909" d="M123 1229l342 330q324 -315 340 -330l-68 -60l-274 273l-270 -273zM266 936l2 70q111 18 168.5 18t78 -26.5t20.5 -57.5v-858l153 -10v-37l-2 -35l-410 -2q0 59 3 70l106 14q16 2 16 29v798q0 23 -12 23z" />
<glyph unicode="&#xef;" horiz-adv-x="825" d="M123 1251q0 37 21.5 58.5t57.5 21.5t57.5 -21.5t21.5 -60.5t-22.5 -60.5t-57.5 -21.5t-56.5 23.5t-21.5 60.5zM225 936l2 70q111 18 168.5 18t78 -26.5t20.5 -57.5v-858l153 -10v-37l-2 -35l-409 -2q0 59 2 70l106 14q16 2 16 29v798q0 23 -12 23zM565 1251 q0 37 20.5 58.5t55.5 21.5q82 0 82 -82q0 -39 -22.5 -60.5t-58.5 -21.5t-56.5 23.5t-20.5 60.5z" />
<glyph unicode="&#xf0;" horiz-adv-x="1280" d="M154 490.5q0 252.5 140 397t349 144.5q133 0 223 -67q-129 219 -360 356l-152 -197l-51 41l146 189q-104 53 -213 88l32 94q121 -49 236 -109l133 172l51 -40l-125 -164q563 -320 563 -842q0 -274 -139 -417.5t-354 -143.5t-347 123t-132 375.5zM287 502.5 q0 -189.5 97 -290.5t252 -101t253 106.5t104 306.5q0 104 -30 217l-7 -6q-121 178 -309 178q-156 0 -258 -110.5t-102 -300z" />
<glyph unicode="&#xf1;" horiz-adv-x="1290" d="M102 922v102h271v-115q168 115 321 121q150 0 228 -59q35 -27 62.5 -83.5t27.5 -133.5v-652h157v-102h-413v102h123v600q0 199 -234 199q-127 -4 -272 -84v-715h153v-102h-413v102h127v820h-138zM254 1237q26 133 180 133q70 0 208 -33.5t191.5 -33.5t72 18t26.5 61 l72 -14q-18 -80 -53.5 -111.5t-89.5 -31.5t-206 39q-135 31 -209 30q-109 0 -122 -71z" />
<glyph unicode="&#xf2;" horiz-adv-x="1179" d="M94 490.5q0 252.5 140.5 397t353.5 144.5t346 -123t133 -375.5t-140.5 -397t-354.5 -144.5t-346 123t-132 375.5zM227 502.5q0 -189.5 97.5 -290.5t251 -101t256 109.5t102.5 299t-98.5 291.5t-251 102t-255 -110.5t-102.5 -300zM332 1522l123 14l213 -301l-95 -16z" />
<glyph unicode="&#xf3;" horiz-adv-x="1179" d="M94 490.5q0 252.5 140.5 397t353.5 144.5t346 -123t133 -375.5t-140.5 -397t-354.5 -144.5t-346 123t-132 375.5zM227 502.5q0 -189.5 97.5 -290.5t251 -101t256 109.5t102.5 299t-98.5 291.5t-251 102t-255 -110.5t-102.5 -300zM614 1235l213 301l123 -14l-243 -303z " />
<glyph unicode="&#xf4;" horiz-adv-x="1179" d="M94 490.5q0 252.5 140.5 397t353.5 144.5t346 -123t133 -375.5t-140.5 -397t-354.5 -144.5t-346 123t-132 375.5zM227 502.5q0 -189.5 97.5 -290.5t251 -101t256 109.5t102.5 299t-98.5 291.5t-251 102t-255 -110.5t-102.5 -300zM266 1229l342 330q324 -315 340 -330 l-67 -60l-275 273l-270 -273z" />
<glyph unicode="&#xf5;" horiz-adv-x="1179" d="M94 490.5q0 252.5 140.5 397t353.5 144.5t346 -123t133 -375.5t-140.5 -397t-354.5 -144.5t-346 123t-132 375.5zM227 502.5q0 -189.5 97.5 -290.5t251 -101t256 109.5t102.5 299t-98.5 291.5t-251 102t-255 -110.5t-102.5 -300zM229 1208q27 133 181 133q70 0 208 -33.5 t191 -33.5t71.5 18.5t26.5 61.5l72 -15q-18 -80 -53 -111.5t-89.5 -31.5t-205.5 39q-135 31 -209 31q-109 0 -123 -72z" />
<glyph unicode="&#xf6;" horiz-adv-x="1179" d="M94 490.5q0 252.5 140.5 397t353.5 144.5t346 -123t133 -375.5t-140.5 -397t-354.5 -144.5t-346 123t-132 375.5zM227 502.5q0 -189.5 97.5 -290.5t251 -101t256 109.5t102.5 299t-98.5 291.5t-251 102t-255 -110.5t-102.5 -300zM295 1272q0 37 21.5 58.5t57.5 21.5 t57.5 -21.5t21.5 -60.5t-22.5 -60.5t-57.5 -21.5t-56.5 23.5t-21.5 60.5zM737 1272q0 37 20.5 58.5t55.5 21.5q82 0 82 -82q0 -39 -22.5 -60.5t-58.5 -21.5t-56.5 23.5t-20.5 60.5z" />
<glyph unicode="&#xf7;" horiz-adv-x="1572" d="M299 475v119h930v-119h-930zM682 195q0 45 24.5 72.5t65.5 27.5q88 0 88 -100q0 -43 -25.5 -70t-62.5 -27q-90 1 -90 97zM682 856q0 45 25.5 73.5t64.5 28.5q88 0 88 -102q0 -43 -25.5 -68.5t-62.5 -25.5q-90 0 -90 94z" />
<glyph unicode="&#xf8;" horiz-adv-x="1280" d="M153.5 502.5q0.5 240.5 140.5 385t355 144.5q172 0 289 -78l72 86l67 -45l-78 -94q127 -131 127 -375.5t-140 -389t-341 -144.5t-317 86l-74 -92l-66 49l80 96q-115 131 -114.5 371.5zM287 517q0 -175 71 -275l494 606q-88 66 -203 65q-157 0 -259.5 -110.5 t-102.5 -285.5zM414 182q90 -72 232 -71.5t244.5 110t102.5 288.5t-82 284z" />
<glyph unicode="&#xf9;" horiz-adv-x="1329" d="M123 922v102h276v-713q0 -72 31 -118t78 -60q78 -25 125 -20q123 2 285 88v721h-144v102h277v-922h157v-102h-270l-20 119q-186 -125 -353 -125q-70 0 -164 35q-61 23 -98 85t-37 156v652h-143zM334 1522l123 14l213 -301l-95 -16z" />
<glyph unicode="&#xfa;" horiz-adv-x="1329" d="M123 922v102h276v-713q0 -72 31 -118t78 -60q78 -25 125 -20q123 2 285 88v721h-144v102h277v-922h157v-102h-270l-20 119q-186 -125 -353 -125q-70 0 -164 35q-61 23 -98 85t-37 156v652h-143zM602 1239l213 301l123 -14l-244 -303z" />
<glyph unicode="&#xfb;" horiz-adv-x="1329" d="M123 922v102h276v-713q0 -72 31 -118t78 -60q78 -25 125 -20q123 2 285 88v721h-144v102h277v-922h157v-102h-270l-20 119q-186 -125 -353 -125q-70 0 -164 35q-61 23 -98 85t-37 156v652h-143zM305 1229l342 330q324 -315 340 -330l-67 -60l-275 273l-270 -273z" />
<glyph unicode="&#xfc;" horiz-adv-x="1329" d="M123 922v102h276v-713q0 -72 31 -118t78 -60q78 -25 125 -20q123 2 285 88v721h-144v102h277v-922h157v-102h-270l-20 119q-186 -125 -353 -125q-70 0 -164 35q-61 23 -98 85t-37 156v652h-143zM346 1251q0 37 21.5 58.5t57.5 21.5t57.5 -21.5t21.5 -60.5t-22.5 -60.5 t-57.5 -21.5t-56.5 23.5t-21.5 60.5zM788 1251q0 37 20.5 58.5t55.5 21.5q82 0 82 -82q0 -39 -22.5 -60.5t-58.5 -21.5t-56.5 23.5t-20.5 60.5z" />
<glyph unicode="&#xfd;" horiz-adv-x="1337" d="M82 922v102h432v-102h-141l270 -826l348 826h-112v102h376v-102h-122l-408 -922l-68 -408h172v-102h-432v102h127l64 408h-35l-332 922h-139zM645 1235l213 301l123 -14l-244 -303z" />
<glyph unicode="&#xfe;" horiz-adv-x="1167" d="M123 1448l2 70q129 18 177 18t69.5 -26.5t21.5 -57.5v-504q129 94 275 94q139 0 262 -86q66 -47 105.5 -147t39.5 -244q0 -272 -135 -409q-154 -156 -397 -156q-72 0 -150 10v-438l174 -10l-2 -35v-37l-432 -2l2 70l107 14q18 2 18 29v1826q-4 16 -12 17zM393 115 q59 -14 129 -15q203 0 311.5 119t108.5 336q0 252 -147 330q-72 39 -166.5 38.5t-235.5 -59.5v-749z" />
<glyph unicode="&#xff;" horiz-adv-x="1337" d="M82 922v102h432v-102h-141l270 -826l348 826h-112v102h376v-102h-122l-408 -922l-68 -408h172v-102h-432v102h127l64 408h-35l-332 922h-139zM362 1251q0 37 22 58.5t57.5 21.5t57 -21.5t21.5 -60.5t-22.5 -60.5t-57 -21.5t-56.5 23.5t-22 60.5zM805 1251q0 37 20.5 58.5 t55.5 21.5q82 0 82 -82q0 -39 -22.5 -60.5t-58.5 -21.5t-56.5 23.5t-20.5 60.5z" />
<glyph unicode="&#x152;" horiz-adv-x="1507" d="M82 713q0 334 173 531.5t431 197.5q39 0 121 -8h532l27 -295l-102 -17l-25 189h-373v-539h303q20 4 21 25l8 100l94 4v-350q-2 0 -47 -2h-45l-8 100h-326v-526h428l31 246l100 -11l-30 -358h-607q-43 -8 -102 -8q-604 0 -604 721zM221 717q0 -602 465 -602h41v1202 q-14 2 -41 2q-201 0 -333 -161t-132 -441z" />
<glyph unicode="&#x153;" horiz-adv-x="1603" d="M92 490.5q0 252.5 140.5 397t344 144.5t326.5 -98l-90 -103q-92 82 -237.5 82t-248 -110.5t-102.5 -300t97.5 -290.5t234.5 -101t231 71l84 -92q-129 -98 -322.5 -98t-325.5 123t-132 375.5zM659 469q0 270 140 414q145 150 337.5 149.5t294 -107t101.5 -298.5 q0 -41 -6 -88h-731q-7 -43 -7 -80q0 -182 104.5 -265t244.5 -83q90 0 185 17t126 32l27 -97q-47 -31 -155 -51t-197 -20t-159.5 18.5t-144.5 65.5t-117 147.5t-43 245.5zM809 618h600v23q0 127 -76 195.5t-176 68.5q-137 0 -227 -83t-121 -204z" />
<glyph unicode="&#x178;" horiz-adv-x="1396" d="M41 1321v113h414v-113h-129l385 -723l366 723h-125v113h402v-113h-137l-441 -838v-370h148v-113h-410v113h133v370l-467 838h-139zM412 1620q0 37 21.5 58.5t57 21.5t57 -21.5t21.5 -60.5t-22.5 -60.5t-57 -21.5t-56 23.5t-21.5 60.5zM854 1620q0 37 20.5 58.5t55.5 21.5 q82 0 82 -82q0 -39 -22.5 -60.5t-58.5 -21.5t-56.5 23.5t-20.5 60.5z" />
<glyph unicode="&#x2c6;" horiz-adv-x="1146" d="M238 1229l342 330q324 -315 340 -330l-68 -60l-274 273l-271 -273z" />
<glyph unicode="&#x2dc;" horiz-adv-x="1204" d="M250 1208q26 133 180 133q70 0 208 -33.5t191.5 -33.5t72 18.5t26.5 61.5l71 -15q-18 -80 -53 -111.5t-89 -31.5t-206 39q-135 31 -209 31q-109 0 -123 -72z" />
<glyph unicode="&#x2000;" horiz-adv-x="962" />
<glyph unicode="&#x2001;" horiz-adv-x="1925" />
<glyph unicode="&#x2002;" horiz-adv-x="962" />
<glyph unicode="&#x2003;" horiz-adv-x="1925" />
<glyph unicode="&#x2004;" horiz-adv-x="641" />
<glyph unicode="&#x2005;" horiz-adv-x="481" />
<glyph unicode="&#x2006;" horiz-adv-x="320" />
<glyph unicode="&#x2007;" horiz-adv-x="320" />
<glyph unicode="&#x2008;" horiz-adv-x="240" />
<glyph unicode="&#x2009;" horiz-adv-x="385" />
<glyph unicode="&#x200a;" horiz-adv-x="106" />
<glyph unicode="&#x2010;" d="M299 475v119h619v-119h-619z" />
<glyph unicode="&#x2011;" d="M299 475v119h619v-119h-619z" />
<glyph unicode="&#x2012;" d="M299 475v119h619v-119h-619z" />
<glyph unicode="&#x2013;" horiz-adv-x="1230" d="M164 475v119h930v-119h-930z" />
<glyph unicode="&#x2014;" horiz-adv-x="1435" d="M164 475v119h1134v-119h-1134z" />
<glyph unicode="&#x2018;" horiz-adv-x="409" d="M162 1460l90 10q-2 -27 -2 -77v-82v-58l2 -22l-70 -8q-20 123 -20 237z" />
<glyph unicode="&#x2019;" horiz-adv-x="409" d="M162 1225l2 22v56v65q0 70 -2 96l90 6q0 -29 -2 -57.5t-3 -52t-3 -44t-4 -36.5t-4.5 -27.5t-4.5 -23.5z" />
<glyph unicode="&#x201a;" horiz-adv-x="409" d="M162 -66l2 23v55v66q0 70 -2 96l90 6q0 -29 -2 -57.5t-3 -52t-3 -44t-4 -37t-4.5 -27.5t-4.5 -23z" />
<glyph unicode="&#x201c;" horiz-adv-x="614" d="M162 1460l90 10q-2 -27 -2 -77v-82v-58l2 -22l-70 -8q-20 123 -20 237zM387 1460l90 10q-2 -27 -2 -77v-82v-58l2 -22l-69 -8q-20 123 -21 237z" />
<glyph unicode="&#x201d;" horiz-adv-x="614" d="M162 1225l2 22v56v65q0 70 -2 96l90 6q0 -29 -2 -57.5t-3 -52t-3 -44t-4 -36.5t-4.5 -27.5t-4.5 -23.5zM387 1225l2 22v56v65q0 70 -2 96l90 6q0 -29 -2 -57.5t-3 -52t-3 -44t-4 -36.5t-4 -27.5t-4 -23.5z" />
<glyph unicode="&#x201e;" horiz-adv-x="614" d="M162 -66l2 23v55v66q0 70 -2 96l90 6q0 -29 -2 -57.5t-3 -52t-3 -44t-4 -37t-4.5 -27.5t-4.5 -23zM387 -66l2 23v55v66q0 70 -2 96l90 6q0 -29 -2 -57.5t-3 -52t-3 -44t-4 -37t-4 -27.5t-4 -23z" />
<glyph unicode="&#x2022;" horiz-adv-x="948" d="M211 862q0 123 75.5 201t186.5 78t185.5 -71t74.5 -193.5t-76.5 -199.5t-187.5 -77t-184.5 69.5t-73.5 192.5z" />
<glyph unicode="&#x2026;" horiz-adv-x="790" d="M59 59q0 39 19.5 61.5t52.5 22.5q72 0 72 -84q0 -35 -20.5 -55t-51.5 -20q-72 -1 -72 75zM317 59q0 39 19.5 61.5t52.5 22.5q74 0 74 -84q0 -35 -21.5 -55t-52.5 -20q-72 -1 -72 75zM571 59q0 39 19.5 61.5t52.5 22.5q74 0 74 -84q0 -35 -21.5 -55t-52.5 -20 q-72 -1 -72 75z" />
<glyph unicode="&#x202f;" horiz-adv-x="385" />
<glyph unicode="&#x2039;" horiz-adv-x="892" d="M154 530l551 351v-99l-418 -252l418 -251v-99z" />
<glyph unicode="&#x203a;" horiz-adv-x="892" d="M154 180v99l417 251l-417 252v99l551 -351z" />
<glyph unicode="&#x205f;" horiz-adv-x="481" />
<glyph unicode="&#x20ac;" horiz-adv-x="1314" d="M109 467v57h81q-4 57 -4 102.5t7 100.5h-74v57h82q39 213 170 324q156 131 362 131q113 0 209 -30.5t139 -80.5l-53 -81q-25 27 -106.5 53t-176.5 26q-156 0 -263 -85t-142 -257h561v-57h-571q-6 -51 -6 -112.5t4 -90.5h573v-57h-565q31 -186 140.5 -275.5t268.5 -89.5 q96 0 185.5 30t116.5 56l47 -86q-51 -55 -157 -83.5t-169 -28.5t-94 2q-113 12 -207 59t-170 153.5t-100 262.5h-88z" />
<glyph unicode="&#x2122;" horiz-adv-x="903" d="M41 1350l6 84h268l9 -84l-29 -4l-6 53h-90v-346l43 -4l-2 -25l-117 -2q0 23 2 27l31 4q6 0 6 8v338h-86l-6 -53zM399 1024v25l31 4h2v350l-2 2l-31 2v27h74l152 -301l149 301h76q2 -25 2 -27l-31 -2l-8 -8v-344l43 -2v-27h-117v25l31 4q6 4 6 8v303l-131 -264h-43 l-133 268v-313l47 -4v-27h-117z" />
<glyph unicode="&#x25fc;" horiz-adv-x="1024" d="M0 0v1024h1024v-1024h-1024z" />
</font>
</defs>
</svg>
